<?xml version="1.0" standalone="no"?>
<!DOCTYPE svg PUBLIC "-//W3C//DTD SVG 1.1//EN" "http://www.w3.org/Graphics/SVG/1.1/DTD/svg11.dtd" >
<svg xmlns="http://www.w3.org/2000/svg">
<metadata>Generated by IcoMoon</metadata>
<defs>
<font id="icomoon" horiz-adv-x="1024">
<font-face units-per-em="1024" ascent="972.8" descent="-51.2" />
<missing-glyph horiz-adv-x="1024" />
<glyph unicode="&#x20;" horiz-adv-x="512" d="" />
<glyph unicode="&#xe000;" glyph-name="search" d="M898.304 168.038l-193.485 193.485c29.184 47.974 45.978 104.192 45.978 164.454 0 174.899-151.603 326.502-326.554 326.502-174.899 0-316.723-141.824-316.723-316.723 0-174.95 151.552-326.554 326.502-326.554 58.163 0 112.64 15.77 159.488 43.162l194.509-194.56c19.098-19.046 49.92-19.046 68.915 0l48.282 48.23c18.995 19.046 12.083 43.008-6.912 62.003zM205.005 535.757c0 121.088 98.15 219.29 219.238 219.29 121.139 0 229.069-107.93 229.069-229.069s-98.15-219.29-219.29-219.29-229.018 107.93-229.018 229.069z" />
<glyph unicode="&#xe001;" glyph-name="list" d="M256 294.4h-51.2c-28.262 0-51.2-22.886-51.2-51.2s22.938-51.2 51.2-51.2h51.2c28.262 0 51.2 22.886 51.2 51.2s-22.938 51.2-51.2 51.2zM256 499.2h-51.2c-28.262 0-51.2-22.938-51.2-51.2s22.938-51.2 51.2-51.2h51.2c28.262 0 51.2 22.938 51.2 51.2s-22.938 51.2-51.2 51.2zM256 704h-51.2c-28.262 0-51.2-22.938-51.2-51.2s22.938-51.2 51.2-51.2h51.2c28.262 0 51.2 22.938 51.2 51.2s-22.938 51.2-51.2 51.2zM460.8 601.6h358.4c28.314 0 51.2 22.938 51.2 51.2s-22.886 51.2-51.2 51.2h-358.4c-28.262 0-51.2-22.938-51.2-51.2s22.938-51.2 51.2-51.2zM819.2 499.2h-358.4c-28.262 0-51.2-22.938-51.2-51.2s22.938-51.2 51.2-51.2h358.4c28.314 0 51.2 22.938 51.2 51.2s-22.886 51.2-51.2 51.2zM819.2 294.4h-358.4c-28.262 0-51.2-22.886-51.2-51.2s22.938-51.2 51.2-51.2h358.4c28.314 0 51.2 22.886 51.2 51.2s-22.886 51.2-51.2 51.2z" />
<glyph unicode="&#xe002;" glyph-name="twitter" d="M512 939.52c-271.462 0-491.52-220.058-491.52-491.52s220.058-491.52 491.52-491.52 491.52 220.058 491.52 491.52-220.058 491.52-491.52 491.52zM711.885 536.832c0.205-4.147 0.307-8.346 0.307-12.544 0-127.898-97.382-275.405-275.456-275.405-54.63 0-105.574 15.974-148.378 43.52 7.578-0.922 15.309-1.331 23.091-1.331 45.363 0 87.091 15.462 120.269 41.472-42.342 0.768-78.131 28.774-90.47 67.174 5.888-1.126 11.981-1.741 18.176-1.741 8.858 0 17.408 1.178 25.498 3.379-44.237 8.909-77.67 48.026-77.67 94.925 0 0.41 0 0.819 0.051 1.178 13.056-7.219 28.006-11.571 43.827-12.083-25.907 17.357-43.008 46.95-43.008 80.589 0 17.766 4.762 34.406 13.107 48.691 47.718-58.624 119.091-97.178 199.526-101.171-1.638 7.066-2.509 14.438-2.509 22.067 0 53.453 43.366 96.819 96.819 96.819 27.853 0 52.992-11.725 70.656-30.566 22.067 4.301 42.803 12.339 61.491 23.45-7.27-22.579-22.579-41.574-42.598-53.555 19.61 2.355 38.246 7.526 55.603 15.258-12.954-19.405-29.44-36.454-48.333-50.125z" />
<glyph unicode="&#xe003;" glyph-name="arrow-right" d="M438.426 728.781c21.402-20.89 230.502-240.435 230.502-240.435 11.469-11.162 17.152-25.754 17.152-40.346s-5.683-29.184-17.152-40.346c0 0-209.101-219.546-230.502-240.384-21.402-20.89-59.853-22.323-82.739 0-22.835 22.272-24.627 53.35 0 80.64l191.898 200.090-191.846 200.090c-24.627 27.341-22.835 58.419 0 80.691s61.338 20.89 82.688 0z" />
<glyph unicode="&#xe004;" glyph-name="arrow-left" d="M585.574 728.781c-21.402-20.89-230.502-240.435-230.502-240.435-11.418-11.162-17.101-25.754-17.101-40.346s5.683-29.184 17.101-40.346c0 0 209.101-219.546 230.502-240.384 21.402-20.89 59.904-22.323 82.739 0 22.784 22.272 24.576 53.35-0.051 80.64l-191.846 200.090 191.846 200.090c24.627 27.341 22.835 58.419 0.051 80.691-22.886 22.272-61.389 20.89-82.739 0z" />
<glyph unicode="&#xe005;" glyph-name="arrow-down" d="M792.73 521.574c-20.838-21.402-240.384-230.554-240.384-230.554-11.162-11.418-25.754-17.101-40.346-17.101-14.643 0-29.235 5.683-40.346 17.101 0 0-219.546 209.152-240.435 230.554-20.838 21.402-22.272 59.853 0 82.739 22.323 22.835 53.402 24.627 80.691 0l200.090-191.898 200.038 191.846c27.341 24.627 58.47 22.835 80.691 0 22.323-22.835 20.941-61.338 0-82.688z" />
<glyph unicode="&#xe006;" glyph-name="arrow-up" d="M792.73 374.426c-20.838 21.402-240.384 230.502-240.384 230.502-11.162 11.418-25.754 17.152-40.346 17.152-14.643 0-29.235-5.734-40.346-17.152 0 0-219.546-209.101-240.435-230.502-20.838-21.402-22.272-59.904 0-82.739 22.323-22.784 53.402-24.627 80.691 0l200.090 191.846 200.038-191.846c27.341-24.627 58.47-22.784 80.691 0 22.323 22.886 20.941 61.389 0 82.739z" />
<glyph unicode="&#xe007;" glyph-name="phone" d="M449.107 385.075c81.050-81.101 174.95-158.618 212.070-121.446 53.146 53.094 85.862 99.379 203.008 5.274s27.187-156.877-24.32-208.384c-59.392-59.341-280.781-3.123-499.661 215.706-218.778 218.829-275.098 440.269-215.654 499.661 51.456 51.507 114.176 141.414 208.333 24.32s47.872-149.862-5.274-203.008c-37.018-37.171 40.448-131.021 121.498-212.122z" />
<glyph unicode="&#xe008;" glyph-name="mail" d="M81.613 689.357c24.986-13.466 371.149-199.373 384.051-206.285 12.851-6.912 29.542-10.24 46.336-10.24 16.845 0 33.536 3.328 46.387 10.291 12.902 6.912 359.014 192.819 384 206.285 25.037 13.414 48.691 55.552 2.765 55.552h-866.253c-45.926 0-22.323-42.138 2.714-55.603zM952.986 586.957c-28.416-14.848-377.19-197.171-394.598-206.285s-29.542-10.291-46.387-10.291c-16.794 0-28.928 1.178-46.336 10.291s-366.234 191.488-394.598 206.285c-20.019 10.445-19.866-1.792-19.866-11.213s0-375.552 0-375.552c0-21.504 28.621-49.152 50.79-49.152h820.070c22.221 0 50.739 27.648 50.739 49.101 0 0 0 366.131 0 375.552 0 9.472 0.205 21.709-19.814 11.264z" />
<glyph unicode="&#xe009;" glyph-name="facebook" d="M512 939.52c-271.462 0-491.52-220.058-491.52-491.52s220.058-491.52 491.52-491.52 491.52 220.058 491.52 491.52-220.058 491.52-491.52 491.52zM628.378 599.859h-73.882c-8.704 0-18.432-11.52-18.432-26.829v-53.35h92.365v-76.083h-92.365v-228.403h-87.245v228.403h-79.053v76.032h79.053v44.749c0 64.205 44.544 116.378 105.677 116.378h73.882v-80.896z" />
<glyph unicode="&#xe00a;" glyph-name="googleplus" d="M465.766 587.008c-12.339 43.52-32.307 56.371-63.386 56.371-3.328 0-6.707-0.461-9.933-1.331-13.517-3.84-24.166-15.104-30.106-31.744-6.093-16.896-6.502-34.56-1.178-54.63 9.421-35.84 34.918-61.901 60.672-61.901 3.328 0 6.707 0.461 9.933 1.331 28.006 7.936 45.619 50.842 33.997 91.904zM512 939.52c-271.462 0-491.52-220.058-491.52-491.52s220.058-491.52 491.52-491.52c271.514 0 491.52 220.058 491.52 491.52s-220.006 491.52-491.52 491.52zM483.686 236.954c-30.925-15.002-64.154-16.589-77.005-16.589-2.458 0-3.84 0.051-4.045 0.051 0 0-0.973 0-2.509 0-20.070 0-119.962 4.608-119.962 95.59 0 89.395 108.749 96.358 142.080 96.358h0.922c-19.2 25.702-15.206 51.61-15.206 51.61-1.69-0.102-4.198-0.205-7.219-0.205-12.595 0-36.813 1.997-57.6 15.462-25.446 16.333-38.349 44.237-38.349 82.893 0 109.107 119.091 113.51 120.32 113.562h118.938v-2.611c0-13.312-23.859-15.872-40.192-18.125-5.53-0.768-16.589-1.894-19.763-3.482 30.157-16.077 35.021-41.421 35.021-79.104 0-42.854-16.794-65.536-34.611-81.51-11.008-9.83-19.712-17.664-19.712-28.006 0-10.138 11.878-20.582 25.702-32.717 22.579-19.866 53.555-47.053 53.555-92.723 0-47.206-20.326-80.998-60.365-100.454zM743.782 448.461h-77.619v-77.619h-49.152v77.619h-77.619v49.152h77.619v77.568h49.152v-77.619h77.619v-49.101zM421.018 389.069c-2.662 0-5.325-0.102-7.987-0.307-22.733-1.638-43.725-10.189-58.931-24.013-15.053-13.619-22.682-30.771-21.606-48.179 2.253-36.352 41.37-57.702 88.781-54.272 46.746 3.379 77.875 30.259 75.571 66.662-2.202 34.253-31.949 60.109-75.827 60.109z" />
<glyph unicode="&#xe00b;" glyph-name="pinterest" d="M512 939.52c-271.462 0-491.52-220.058-491.52-491.52s220.058-491.52 491.52-491.52 491.52 220.058 491.52 491.52-220.058 491.52-491.52 491.52zM545.587 331.469c-31.488 2.458-44.698 18.074-69.376 33.075-13.619-71.27-30.157-139.571-79.36-175.206-15.155 107.674 22.323 188.518 39.68 274.33-29.645 49.869 3.584 150.323 66.099 125.594 76.954-30.464-66.662-185.549 29.747-204.954 100.659-20.224 141.722 174.643 79.309 237.978-90.163 91.494-262.451 2.099-241.254-128.922 5.171-32.051 38.195-41.728 13.21-85.965-57.702 12.8-74.957 58.317-72.704 118.989 3.584 99.379 89.242 168.909 175.155 178.586 108.698 12.134 210.688-39.885 224.819-142.131 15.821-115.456-49.101-240.384-165.325-231.373z" />
<glyph unicode="&#xe00c;" glyph-name="linkedin" d="M512 939.52c-271.462 0-491.52-220.058-491.52-491.52s220.058-491.52 491.52-491.52 491.52 220.058 491.52 491.52-220.058 491.52-491.52 491.52zM391.68 244.275h-99.533v320.256h99.533v-320.256zM341.299 603.853c-31.437 0-51.763 22.323-51.763 49.818 0 28.16 20.941 49.766 53.043 49.766s51.763-21.606 52.378-49.766c0.051-27.546-20.275-49.818-53.658-49.818zM755.149 244.275h-99.482v177.51c0 41.267-14.438 69.376-50.432 69.376-27.494 0-43.827-18.995-51.098-37.325-2.611-6.502-3.277-15.718-3.277-24.832v-184.678h-99.584v218.112c0 39.936-1.28 73.37-2.611 102.144h86.426l4.608-44.493h1.946c13.107 20.941 45.21 51.712 98.918 51.712 65.485 0 114.586-43.827 114.586-138.138v-189.389z" />
<glyph unicode="&#xe00d;" glyph-name="pictures" d="M876.8 592.742l-104.755 288.563c-7.731 21.299-30.464 32.563-50.637 25.19l-696.166-254.106c-20.224-7.322-30.413-30.566-22.682-51.866l110.438-304.23v163.072c0 73.574 58.778 133.376 131.123 133.376h183.962l219.392 154.010 126.976-154.010h102.349zM984.986 500.378h-740.864c-21.504 0-39.014-18.381-39.014-41.062v-482.355c0-22.63 17.459-41.062 39.014-41.062h740.864c21.555 0 39.014 18.381 39.014 41.062v482.406c0 22.63-17.459 41.011-39.014 41.011zM928.461 38.554h-614.144v88.013l94.464 219.904 141.773-175.974 132.966 136.294 170.957 61.696 73.984-164.966v-164.966z" />
<glyph unicode="&#xe900;" glyph-name="pencil" d="M752.128 836.557c-96.973 70.605-165.99 69.069-192.205 64.819-7.373-1.178-13.568-5.427-17.92-11.418l-352.41-486.246c-14.182-19.558-22.374-42.803-23.654-66.918l-15.155-287.949c-1.075-20.736 19.558-35.738 38.912-28.314l269.107 102.912c22.682 8.704 42.394 23.808 56.627 43.469l352.256 486.093c4.557 6.298 6.4 13.978 5.12 21.658-4.301 26.931-24.934 92.262-120.678 161.894zM459.622 180.992l-104.602-40.397c-4.096-1.587-8.653-0.307-11.315 3.174-13.466 17.152-29.491 34.15-55.040 52.736-25.549 18.534-46.643 28.57-67.072 36.147-4.096 1.536-6.707 5.427-6.451 9.83l6.246 111.923 28.109 38.656c0 0 62.925 8.653 145.050-51.098 82.022-59.699 93.235-122.266 93.235-122.266l-28.16-38.707z" />
<glyph unicode="&#xe901;" glyph-name="rss" d="M122.88 849.92v-121.19c362.803 0 656.896-294.195 656.896-656.998h121.293c0 429.773-348.416 778.189-778.189 778.189zM122.88 607.386v-121.293c228.813 0 414.362-185.498 414.362-414.413h121.242c0 295.834-239.821 535.706-535.603 535.706zM239.053 304.179c-64.205 0-116.224-52.122-116.224-116.275s52.019-116.224 116.224-116.224 116.173 52.019 116.173 116.224-51.968 116.275-116.173 116.275z" />
<glyph unicode="&#xe902;" glyph-name="cross" d="M734.618 212.531c-24.013-24.013-62.925-24.013-86.886 0l-135.731 155.136-135.731-155.085c-24.013-24.013-62.925-24.013-86.886 0-24.013 24.013-24.013 62.925 0 86.886l141.21 161.28-141.261 161.382c-24.013 24.013-24.013 62.874 0 86.886s62.874 24.013 86.886 0l135.782-155.187 135.731 155.187c24.013 24.013 62.874 24.013 86.886 0s24.013-62.925 0-86.886l-141.21-161.382 141.21-161.28c24.013-24.013 24.013-62.925 0-86.938z" />
<glyph unicode="&#xe903;" glyph-name="youtube-with-circle" d="M594.074 469.35l-114.995 53.658c-10.035 4.659-18.278-0.563-18.278-11.674v-101.069c0-11.11 8.243-16.333 18.278-11.674l114.944 53.658c10.086 4.71 10.086 12.39 0.051 17.101zM512 952.32c-271.462 0-491.52-220.058-491.52-491.52s220.058-491.52 491.52-491.52 491.52 220.058 491.52 491.52-220.058 491.52-491.52 491.52zM512 261.12c-251.597 0-256 22.682-256 199.68s4.403 199.68 256 199.68 256-22.682 256-199.68-4.403-199.68-256-199.68z" />
<glyph unicode="&#xe904;" glyph-name="plus" d="M819.2 460.8c0-28.314-2.458-51.2-30.771-51.2h-225.229v-225.229c0-28.262-22.886-30.771-51.2-30.771s-51.2 2.509-51.2 30.771v225.229h-225.229c-28.262 0-30.771 22.886-30.771 51.2s2.509 51.2 30.771 51.2h225.229v225.229c0 28.314 22.886 30.771 51.2 30.771s51.2-2.458 51.2-30.771v-225.229h225.229c28.314 0 30.771-22.886 30.771-51.2z" />
<glyph unicode="&#xe905;" glyph-name="minus" d="M819.2 460.8c0-28.314-2.458-51.2-30.771-51.2h-552.858c-28.262 0-30.771 22.886-30.771 51.2s2.509 51.2 30.771 51.2h552.909c28.262 0 30.72-22.886 30.72-51.2z" />
<glyph unicode="&#xe906;" glyph-name="menu" d="M839.68 512h-655.36c-28.262 0-30.72-22.886-30.72-51.2s2.458-51.2 30.72-51.2h655.36c28.262 0 30.72 22.886 30.72 51.2s-2.458 51.2-30.72 51.2zM839.68 307.2h-655.36c-28.262 0-30.72-22.886-30.72-51.2s2.458-51.2 30.72-51.2h655.36c28.262 0 30.72 22.886 30.72 51.2s-2.458 51.2-30.72 51.2zM184.32 614.4h655.36c28.262 0 30.72 22.886 30.72 51.2s-2.458 51.2-30.72 51.2h-655.36c-28.262 0-30.72-22.886-30.72-51.2s2.458-51.2 30.72-51.2z" />
</font>
</defs>
</svg>
