<?xml version="1.0" standalone="no"?>
<!DOCTYPE svg PUBLIC "-//W3C//DTD SVG 1.1//EN" "http://www.w3.org/Graphics/SVG/1.1/DTD/svg11.dtd" >
<svg xmlns="http://www.w3.org/2000/svg">
<metadata></metadata>
<defs>
<font id="league_gothic_italicregular" horiz-adv-x="724" >
<font-face units-per-em="2048" ascent="1505" descent="-543" />
<missing-glyph horiz-adv-x="315" />
<glyph horiz-adv-x="0" />
<glyph unicode="&#xd;" horiz-adv-x="315" />
<glyph horiz-adv-x="0" />
<glyph horiz-adv-x="0" />
<glyph unicode=" "  horiz-adv-x="315" />
<glyph unicode="&#x09;" horiz-adv-x="315" />
<glyph unicode="&#xa0;" horiz-adv-x="315" />
<glyph unicode="!" horiz-adv-x="387" d="M86 0h215l47 227h-215zM215 406h129l289 1099h-240z" />
<glyph unicode="&#x22;" horiz-adv-x="555" d="M334 952l86 551h215l-148 -551h-153zM604 952l86 551h215l-147 -551h-154z" />
<glyph unicode="#" horiz-adv-x="1232" d="M141 438h199l-152 -438h197l152 438h260l-152 -438h197l151 438h191l67 195h-190l92 258h193l67 194h-192l147 420h-197l-147 -420h-260l147 420h-196l-148 -420h-196l-68 -194h197l-92 -258h-199zM604 633l92 258h260l-92 -258h-260z" />
<glyph unicode="$" horiz-adv-x="692" d="M113 358q-24 -131 12 -227q44 -104 162 -125l-47 -221h122l48 217q127 13 219 127q73 88 104 242q15 80 8 127q-13 102 -69 225q-18 33 -25 51q-20 40 -24 47q-39 64 -80 166q-40 95 -21 172q11 56 43 111q30 51 76 51q44 1 57.5 -32.5t8.5 -92.5l196 25q11 120 -22 186 q-45 85 -152 96l25 125h-123l-27 -131q-67 -16 -115 -49q-92 -66 -139 -182q-51 -131 -41 -236q10 -104 70 -227q31 -68 92 -176q3 -7 9 -20.5t9 -20.5t9.5 -21.5t9.5 -21.5q16 -45 24 -86q6 -46 -7.5 -106.5t-43.5 -108.5q-38 -58 -84 -58q-61 0 -84 58q-20 46 -6 129z" />
<glyph unicode="%" horiz-adv-x="1001" d="M158 0h137l866 1505h-131zM248 823q12 -41 39.5 -64.5t83.5 -23.5q61 0 96 27q76 57 98 149l92 437q9 54 -2 86q-13 40 -38.5 64t-79.5 24q-63 0 -97 -27q-82 -63 -100 -147l-92 -437q-12 -51 0 -88zM371 911l92 437q0 13 8 26q1 1 4 5t3.5 5.5t3.5 5t4.5 4.5t5 3.5t6 3 t6.5 1.5t8 1q15 0 18 -8q10 -24 5 -47l-93 -437q-14 -55 -47 -55q-38 0 -24 55zM664 70q13 -39 39.5 -62.5t82.5 -23.5q64 0 97 26q77 57 98 148l92 436q9 53 -2 88q-13 40 -39 64t-80 24q-62 0 -96 -27q-82 -62 -100 -149l-92 -436q-12 -51 0 -88zM786 158l93 436 q0 14 8 27q16 28 41 28q15 0 18 -8q10 -22 4 -47l-92 -436q-1 -13 -24 -47q-11 -11 -23 -11q-16 0 -20 11q-14 21 -5 47z" />
<glyph unicode="&#x26;" horiz-adv-x="854" d="M115 315q-26 -129 37 -231q65 -100 196 -100q132 0 281 139q27 -37 71 -75.5t82 -55.5q13 -8 27 -8l49 235q-13 4 -29 23q-18 13 -47 53q52 73 115 207q43 104 53 151l-168 33q-2 -4 -14 -36t-21.5 -55.5t-25.5 -58.5t-31 -61q-42 89 -88 285q119 122 197 227 q134 180 106 371q-10 71 -51 112q-55 52 -149 52q-106 0 -170 -52q-125 -96 -170 -276q-47 -224 14 -442q-108 -123 -173 -222t-91 -215zM330 319q26 149 100 238q54 -161 113 -295q-44 -44 -75.5 -65t-68.5 -21q-42 0 -61 41t-8 102zM547 1073q-3 123 33 197q31 76 88 76 q32 0 45 -23q22 -43 2 -123q-19 -97 -154 -252q-14 82 -14 125z" />
<glyph unicode="'" horiz-adv-x="309" d="M291 954h153l148 551h-215z" />
<glyph unicode="(" horiz-adv-x="561" d="M170 283q14 -322 125 -580l178 84q-96 205 -108 510q-7 154 34 346.5t115 351.5q142 312 326 510l-146 84q-115 -140 -207 -280q-101 -162 -163 -299q-88 -199 -123 -365q-40 -191 -31 -362z" />
<glyph unicode=")" horiz-adv-x="561" d="M-4 -213l143 -84q118 141 205 279q95 144 164 301q88 195 123 362q42 185 33 365q-20 328 -125 579l-179 -84q40 -92 78 -239q62 -313 -4 -621q-38 -185 -115 -348q-145 -312 -323 -510z" />
<glyph unicode="*" horiz-adv-x="677" d="M338 1251l166 -34l-144 -138l113 -80l109 152l45 -152l149 80l-86 138l178 34l-10 148l-180 -70l57 176h-153l-21 -176l-147 70z" />
<glyph unicode="+" horiz-adv-x="1060" d="M211 649h371l-74 -346h172l74 346h370l37 172h-370l73 346h-172l-74 -346h-370z" />
<glyph unicode="," horiz-adv-x="309" d="M-10 -266h100l170 266l47 227h-215l-47 -227h72z" />
<glyph unicode="-" horiz-adv-x="444" d="M170 455h297l41 194h-297z" />
<glyph unicode="." horiz-adv-x="321" d="M53 0h215l47 227h-215z" />
<glyph unicode="/" horiz-adv-x="720" d="M-23 -147h166l889 1652h-162z" />
<glyph unicode="0" d="M133 309q-18 -96 2 -164q13 -67 62 -110q54 -51 161 -51q110 0 181 51q58 38 112 110q48 73 72 164l188 887q16 99 -4 162q-13 68 -63 112q-59 52 -160 52q-103 0 -182 -52q-52 -35 -111 -112q-47 -70 -69 -162zM354 309l189 887q6 32 18 55q29 56 78 56q27 0 41 -17 q21 -35 10 -94l-188 -887q-6 -25 -21 -55q-25 -55 -78 -55q-25 0 -38 16q-26 37 -11 94z" />
<glyph unicode="1" horiz-adv-x="475" d="M172 0h221l320 1505h-133q-24 -36 -66 -78q-103 -86 -209 -106l-31 -141h148z" />
<glyph unicode="2" horiz-adv-x="731" d="M55 0h600l45 219h-350q141 169 307 422q197 310 238 506q16 82 16 147q0 64 -22 119q-51 109 -211 109q-164 0 -262 -119q-75 -94 -115 -270l-22 -105h221l22 105q13 69 41 129q30 55 72 55q23 0 33.5 -16t15.5 -46q2 -39 -14 -122q-31 -124 -127 -299 q-87 -156 -191 -297q-158 -210 -252 -318z" />
<glyph unicode="3" horiz-adv-x="686" d="M119 217q0 -41 8 -72q31 -161 215 -161q74 0 125 26q95 46 162 160q54 92 73 172q2 10 5 20.5t4.5 15.5t1.5 7q31 149 28 242q-3 111 -67 172l4 2q65 54 110.5 145.5t79.5 251.5q6 26 9 68q3 52 -11 108q-45 148 -217 148q-178 0 -276 -160q-66 -106 -101 -291h217 q35 153 58 205q21 51 61 51q47 0 47 -65q0 -52 -18 -129q-3 -13 -14 -66q-1 -3 -3.5 -18t-4 -20.5t-4.5 -19t-5.5 -21.5t-6.5 -19t-8.5 -20t-10.5 -17q-20 -32 -58 -48t-110 -20l-39 -184h18q68 -3 103 -27q53 -40 28 -155q-7 -20 -14 -62q-4 -19 -9 -41.5t-12 -50 t-10 -41.5q-8 -32 -18 -61q-26 -64 -76 -64q-21 0 -32.5 12t-12.5 41q-9 59 24 203h-217q-6 -32 -12 -67q-14 -69 -14 -150z" />
<glyph unicode="4" horiz-adv-x="684" d="M94 328h342l-69 -328h202l70 328h102l41 194h-102l209 983h-221l-533 -983zM324 522l229 471l20 45h13l-109 -516h-153z" />
<glyph unicode="5" horiz-adv-x="704" d="M145 137q31 -153 213 -153q176 0 277 145q60 88 96 248l70 336q21 88 2 174q-34 137 -180 137q-23 3 -48 -6q-30 -9 -92 -45l68 313h344l47 219h-534l-170 -792h186q15 41 41 69q41 41 70 41q34 0 45.5 -31.5t-0.5 -78.5l-70 -336q-8 -38 -25 -96q-12 -33 -20.5 -51.5 t-26 -36t-39.5 -17.5q-39 0 -45 45q-6 39 21 158l12 59h-221q-47 -203 -21 -301z" />
<glyph unicode="6" horiz-adv-x="700" d="M131 309q-25 -110 2 -188q43 -137 217 -137q173 0 275 137q59 77 84 188l63 307q26 107 4 191q-34 127 -182 127q-48 0 -117 -37l55 268q14 76 41 125q20 39 62 39q47 0 47 -53q0 -62 -33 -205h221l19 94q34 125 6 219q-43 138 -219 138q-174 0 -277 -138 q-13 -18 -24.5 -40t-19 -38.5t-16 -41t-11.5 -36t-9.5 -35.5t-7.5 -28zM338 244l96 456q8 22 29.5 42t52.5 20t43 -23.5t10 -44.5l-96 -450q-7 -21 -29 -44.5t-53 -23.5q-32 0 -47 27q-11 20 -6 41z" />
<glyph unicode="7" horiz-adv-x="589" d="M115 0h229l494 1284l47 221h-557l-47 -219h331z" />
<glyph unicode="8" horiz-adv-x="696" d="M111 217q0 -90 45 -154q55 -79 188 -79q69 0 127 22q104 45 162 133q49 74 67 144q4 18 11 39l37 176q41 190 -52 297q60 50 102 123t60 153l27 127q8 31 10 68q0 69 -10 108q-45 148 -215 148q-106 0 -168 -45q-62 -42 -104 -99t-58 -112q-4 -15 -9 -30t-8 -24.5 t-4 -13.5l-26 -127q-18 -77 -7.5 -151.5t50.5 -124.5q-137 -110 -178 -297l-37 -176q-10 -23 -10 -105zM338.5 224q-8.5 38 1.5 87q10 80 43 213q1 6 5.5 24t6.5 25t6.5 22.5t8 22t10 18.5t13 17t15.5 11.5t20 9t24 2.5q55 0 55 -66q-16 -116 -33 -200q-8 -49 -22 -95 q-1 -3 -6 -21t-6.5 -23t-7.5 -20.5t-10 -21t-12.5 -16.5t-16.5 -15t-20 -8t-26 -4q-40 0 -48.5 38zM495.5 928q-5.5 35 6.5 79q1 10 2 15q11 87 43 192q7 27 13 43.5t15.5 34.5t22.5 26.5t31 8.5q45 0 45 -51q-3 -53 -23 -156q-15 -58 -24 -102q-9 -32 -13.5 -45.5 t-15.5 -36.5t-26 -33t-35 -10q-36 0 -41.5 35z" />
<glyph unicode="9" horiz-adv-x="700" d="M123 123q42 -139 219 -139q175 0 276 139q25 34 45 81t26 68t18 68l182 856q20 118 -4 190q-43 136 -217 136q-171 0 -275 -136q-64 -86 -82 -190l-63 -293q-23 -118 -4 -190q34 -127 182 -127q50 0 119 37l-60 -283q-18 -87 -39 -125q-23 -39 -63 -39q-47 0 -47 53 t35 205h-221l-21 -94q-33 -130 -6 -217zM453 825l92 437q7 21 29 44t53 23q23 0 36.5 -14t15.5 -27.5t1 -25.5l-92 -443q-8 -22 -29 -41.5t-53 -19.5q-31 0 -45 24.5t-8 42.5z" />
<glyph unicode=":" horiz-adv-x="362" d="M74 0h215l47 227h-215zM262 893h215l49 227h-215z" />
<glyph unicode=";" horiz-adv-x="362" d="M16 -266h103l170 266l47 227h-215l-47 -227h71zM262 893h215l49 227h-215z" />
<glyph unicode="&#x3c;" horiz-adv-x="1058" d="M211 649l811 -475l41 199l-623 356l774 356l43 199l-1013 -475z" />
<glyph unicode="=" horiz-adv-x="1058" d="M174 477h911l37 172h-911zM256 864h911l37 172h-911z" />
<glyph unicode="&#x3e;" horiz-adv-x="1058" d="M111 174l1011 475l33 160l-809 475l-43 -199l623 -356l-774 -356z" />
<glyph unicode="?" horiz-adv-x="645" d="M199 0h215l47 227h-215zM291 1260l162 -84q21 48 61 90q55 55 100 55q42 0 52 -37q8 -30 -4 -57q-18 -41 -78 -113q-91 -113 -131 -182q-74 -134 -103 -270l-53 -256h190l54 256q10 47 34 108q40 86 109 172q23 23 53 66q40 50 57.5 73.5t39.5 65t30 80.5q19 98 -8 172 q-44 111 -197 114q-122 3 -239 -100q-90 -81 -129 -153z" />
<glyph unicode="@" horiz-adv-x="872" d="M127 214q8 -58 37 -105q75 -125 272 -125q211 0 350 143l-133 86q-66 -63 -182 -63q-98 0 -139 59q-31 42 -19 94l189 889q13 50 59 96q73 62 166 62q96 0 139 -62q30 -46 17 -96l-9 -45q-7 17 -20 33q-30 34 -78 34q-77 0 -122 -47.5t-60 -122.5l-102 -485 q-19 -78 6 -125t102 -47q23 0 53 10q40 18 74 58l8 -56h164l168 793q22 109 -31 203q-76 127 -274 127q-199 0 -326 -127q-50 -50 -80 -105.5t-39 -97.5l-188 -889q-10 -31 -2 -89zM655 573l97 455q12 53 59 53q49 0 37 -53l-96 -455q-9 -53 -62 -53q-47 0 -35 53z" />
<glyph unicode="A" horiz-adv-x="765" d="M20 0h216l104 307h213l-23 -307h215l93 1505h-271zM422 541l164 475l14 39h12l-2 -39l-37 -475h-151z" />
<glyph unicode="B" horiz-adv-x="745" d="M82 0h272q185 8 299 135q94 110 133 291q14 77 16 148q0 4 1 8q-1 66 -23 124q-24 61 -69 89q90 67 137 137q44 65 65 174q18 80 17 143q0 108 -51 168q-77 88 -283 88h-195zM348 219l98 463h43q68 -3 84 -90q3 -15 3 -34q0 -44 -15 -107q-32 -159 -108 -209 q-37 -23 -105 -23zM489 885l86 401q25 0 43 -2q65 -3 84 -80q3 -15 3 -36q0 -34 -9 -83q-30 -134 -102 -178q-38 -22 -105 -22z" />
<glyph unicode="C" horiz-adv-x="708" d="M133 309q-9 -45 -9 -85q0 -44 11 -79q13 -67 62 -110q54 -51 161 -51q110 0 181 51q58 38 112 110q48 73 72 164l43 207h-207l-43 -207q-7 -29 -20 -55q-28 -55 -88 -55q-26 0 -39 16q-17 25 -18 64q0 14 3 30l189 887q6 21 20 55q33 56 80 56q33 0 47 -17q19 -24 19 -60 q0 -16 -4 -34l-46 -207h207l45 207q7 44 7 81q0 46 -11 81q-13 68 -63 112q-59 52 -160 52q-103 0 -182 -52q-52 -35 -111 -112q-47 -70 -69 -162z" />
<glyph unicode="D" horiz-adv-x="761" d="M82 0h174q156 0 251 35.5t157 120.5q57 80 98 214t94 382q26 124 41 205t25 160q9 69 9 121q1 7 1 14q-2 56 -14 98q-29 85 -108 120t-235 35h-174zM348 221l227 1063q64 0 91.5 -15t31.5 -65q1 -11 1 -26q0 -80 -37 -258q-4 -18 -16 -75t-19 -91q-1 -6 -35 -164 q-42 -205 -84 -287q-27 -52 -61.5 -67t-98.5 -15z" />
<glyph unicode="E" horiz-adv-x="628" d="M82 0h506l47 227h-285l88 414h205l51 242h-205l84 395h285l49 227h-506z" />
<glyph unicode="F" horiz-adv-x="616" d="M82 0h221l139 655h205l47 228h-205l84 395h306l49 227h-527z" />
<glyph unicode="G" horiz-adv-x="737" d="M123 145q10 -67 53 -110q48 -51 148 -51q102 0 190 88l12 -72h131l158 750h-309l-39 -187h88l-57 -272q-6 -25 -21 -55q-25 -56 -78 -56q-25 0 -39 17q-16 23 -16 54q0 18 6 40l193 905q6 32 18 55q29 56 78 56q27 0 41 -17q14 -23 14 -56q0 -18 -4 -38l-49 -231h221 l49 231q7 44 7 81q0 46 -11 81q-13 68 -63 112q-59 52 -160 52q-103 0 -182 -52q-52 -35 -111 -112q-47 -70 -69 -162l-189 -887q-15 -61 -15 -110q0 -29 5 -54z" />
<glyph unicode="H" horiz-adv-x="778" d="M82 0h221l139 655h172l-139 -655h221l320 1505h-221l-133 -622h-173l134 622h-222z" />
<glyph unicode="I" horiz-adv-x="385" d="M82 0h221l320 1505h-222z" />
<glyph unicode="J" horiz-adv-x="423" d="M8 -14q20 -1 38 -1q154 0 247 81q91 79 117 213l262 1226h-221l-254 -1192q-11 -53 -35 -73q-36 -38 -87 -38q-10 0 -20 1z" />
<glyph unicode="K" horiz-adv-x="768" d="M82 0h221l113 532l78 123l18 31h6v-31l14 -655h216l-17 1010l309 495h-215l-290 -501l-17 -25h-8l113 526h-222z" />
<glyph unicode="L" horiz-adv-x="604" d="M82 0h514l43 205h-293l277 1300h-222z" />
<glyph unicode="M" horiz-adv-x="991" d="M82 0h205l213 1010h12l-4 -64l-59 -946h94l342 946l20 64h13l-213 -1010h204l320 1505h-271l-278 -688l-27 -80h-4l6 80l17 688h-271z" />
<glyph unicode="N" horiz-adv-x="808" d="M82 0h203l180 854h12l4 -70l49 -784h197l320 1505h-203l-182 -854h-13l-4 70l-47 784h-197z" />
<glyph unicode="O" d="M133 309q-9 -45 -9 -85q0 -44 11 -79q13 -67 62 -110q54 -51 161 -51q110 0 181 51q58 38 112 110q48 73 72 164l188 887q7 44 7 81q0 46 -11 81q-13 68 -63 112q-59 52 -160 52q-103 0 -182 -52q-52 -35 -111 -112q-47 -70 -69 -162zM354 309l189 887q6 32 18 55 q29 56 78 56q27 0 41 -17q14 -23 14 -56q0 -17 -4 -38l-188 -887q-6 -25 -21 -55q-25 -55 -78 -55q-25 0 -38 16q-16 23 -17 55q1 18 6 39z" />
<glyph unicode="P" horiz-adv-x="720" d="M82 0h221l127 602q167 0 287 98q144 118 198 355q18 81 18 149q0 128 -65 207q-77 94 -245 94h-222zM477 827l96 453q101 0 125 -53q8 -20 8 -55q0 -49 -16 -125q-29 -135 -67 -173q-42 -47 -146 -47z" />
<glyph unicode="Q" horiz-adv-x="729" d="M133 309q-9 -45 -9 -85q0 -43 11 -79q13 -67 62 -110q54 -51 161 -51q56 0 115 18q46 -117 203 -117l39 189q-52 10 -76 53q36 59 39 66q32 58 45 116l188 887q7 44 7 81q0 46 -11 81q-13 68 -63 112q-59 52 -160 52q-103 0 -182 -52q-52 -35 -111 -112q-47 -70 -69 -162 zM354 309l189 887q6 32 18 55q29 56 78 56q27 0 41 -17q14 -23 14 -56q0 -18 -4 -38l-188 -887q-6 -25 -21 -55q-25 -55 -78 -55q-25 0 -38 16q-16 23 -16 55q0 18 5 39z" />
<glyph unicode="R" horiz-adv-x="739" d="M82 0h221l133 635h60l-19 -635h221l13 729q69 41 119.5 132.5t76.5 209.5q18 88 19 158q0 105 -41 169q-67 108 -262 107h-222zM481 840l94 446q72 0 99 -31q30 -34 30 -99q0 -41 -12 -93q-29 -135 -100 -191q-40 -32 -111 -32z" />
<glyph unicode="S" horiz-adv-x="702" d="M100 210q2 -52 17 -91q44 -135 237 -135q169 0 269 114q78 89 118 264q9 43 9 88q0 71 -23 148q-42 128 -94 229q-39 79 -80 181q-25 63 -25 118q0 22 4 43q30 147 107 150q47 0 57 -70q1 -11 1 -25q0 -46 -15 -122l221 20q18 83 17 151q0 64 -15 116q-45 133 -219 133 h-8q-146 -3 -246 -115q-89 -96 -117 -238q-10 -52 -10 -89q0 -17 2 -31q9 -121 60 -234q3 -8 49 -108q8 -17 24 -50t23 -49q3 -7 9 -22.5t9 -22.5t9.5 -22.5t9.5 -22.5q26 -67 26 -123q0 -23 -4 -43q-40 -166 -125 -166q-33 0 -48.5 21t-20.5 61q-2 14 -2 31q0 55 20 143 l-221 -20q-13 -67 -19 -113q-5 -37 -6 -79v-20z" />
<glyph unicode="T" horiz-adv-x="647" d="M213 0h221l271 1278h208l50 227h-639l-50 -227h209z" />
<glyph unicode="U" horiz-adv-x="749" d="M145 309q-9 -45 -9 -85q0 -44 11 -79q13 -67 62 -110q54 -51 162 -51q109 0 180 51q60 39 113 110q46 70 71 164l254 1196h-221l-254 -1196q-7 -29 -20 -55q-25 -55 -78 -55q-26 0 -39 16q-16 22 -16 54q0 19 6 40l254 1196h-222z" />
<glyph unicode="V" horiz-adv-x="716" d="M248 0h221l549 1505h-215l-287 -827l-22 -64h-13l6 64l66 827h-215z" />
<glyph unicode="W" horiz-adv-x="1015" d="M207 0h172l252 713l33 88h8l-8 -88l-48 -713h172l523 1505h-205l-254 -782l-16 -49h-17l6 49l72 782h-160l-260 -782l-18 -49h-17l9 49l77 782h-204z" />
<glyph unicode="X" horiz-adv-x="737" d="M16 0h217l222 449l8 18h8v-18l33 -449h217l-76 791l391 714h-217l-203 -381l-10 -18h-8l-2 18l-39 381h-217l88 -714z" />
<glyph unicode="Y" horiz-adv-x="700" d="M240 0h221l135 641l410 864h-218l-213 -481l-10 -14h-4l-2 14l-8 481h-217l41 -864z" />
<glyph unicode="Z" horiz-adv-x="626" d="M20 0h586l45 219h-352l580 1067l47 219h-537l-47 -219h297l-569 -1048z" />
<glyph unicode="[" horiz-adv-x="538" d="M35 -213h399l43 197h-203l281 1325h203l43 196h-400z" />
<glyph unicode="\" horiz-adv-x="792" d="M367 1692l211 -1872h167l-217 1872h-161z" />
<glyph unicode="]" horiz-adv-x="538" d="M10 -213h400l366 1718h-399l-43 -196h203l-281 -1325h-203z" />
<glyph unicode="^" horiz-adv-x="1101" d="M223 809h199l416 543l182 -543h199l-232 696h-233z" />
<glyph unicode="_" horiz-adv-x="1210" d="M4 -326h1063l37 172h-1063z" />
<glyph unicode="`" horiz-adv-x="1024" d="M608 1489l123 -184h160l-68 184h-215z" />
<glyph unicode="a" horiz-adv-x="681" d="M102 260q-13 -61 -13 -109q0 -73 30 -116q31 -51 92 -51t117 39q41 29 71 67h15q-6 -14 -7.5 -41.5t7.5 -48.5h202q4 94 27 195l145 688q7 31 7 60q0 71 -43 122q-60 72 -162 72q-116 0 -217 -88q-99 -92 -125 -211l-8 -47h206q1 5 2.5 14t2.5 12q3 12 6 27q3 8 8 26 t8 27q25 59 68 59q37 0 43 -34q1 -7 1 -13q0 -27 -10 -55l-26 -123q-3 -5 -7.5 -9.5t-11.5 -9.5t-13 -8.5t-17.5 -9t-18.5 -9t-22 -10.5t-23 -11q-120 -59 -188 -127q-110 -110 -146 -277zM309 229q-1 12 -1 22q0 24 5 40q19 86 68 152.5t129 97.5l-61 -287 q-6 -29 -35.5 -48.5t-65.5 -19.5q-29 0 -39 43z" />
<glyph unicode="b" horiz-adv-x="686" d="M82 0h207l14 74q14 -16 43 -45q53 -45 103 -45q71 0 139 75q49 61 67 144l152 715q7 32 7 63q0 42 -13 82q-32 74 -109 74q-32 0 -59 -15q-50 -19 -123 -75l98 458h-207zM340 246l133 628q6 25 29.5 46.5t46.5 21.5t35 -20q8 -13 8 -30q0 -9 -2 -18l-133 -628 q-6 -29 -26.5 -48.5t-43.5 -19.5q-25 0 -39 20q-10 14 -10 32q0 8 2 16z" />
<glyph unicode="c" horiz-adv-x="645" d="M131 315q-15 -68 -15 -123q0 -85 36 -137q54 -71 174 -71q138 0 213 67q81 72 120 254l23 109h-207l-33 -156q-11 -52 -26.5 -71t-50.5 -19q-20 0 -30.5 7.5t-12.5 23t-1 27.5t5 32l129 604q5 27 10.5 43t22 31.5t42.5 15.5q36 0 44 -20q4 -8 3 -22q0 -19 -6 -48 l-28 -135h207l18 88q17 76 16 134q0 78 -30 120q-46 68 -185 68q-122 0 -202 -72q-93 -83 -131 -260z" />
<glyph unicode="d" horiz-adv-x="686" d="M117 203q-7 -35 -7 -65q0 -44 15 -79q24 -75 104 -75q34 0 62 14q55 23 121 76l-15 -74h207l320 1505h-207l-99 -458q-14 16 -43 45q-53 45 -102 45q-75 0 -135 -74q-51 -56 -70 -145zM332 246l133 628q6 29 26.5 48.5t43.5 19.5t38 -22q11 -15 11 -32q0 -7 -2 -14 l-133 -628q-6 -28 -29 -48t-47 -20q-23 0 -35 20q-8 13 -8 30q0 8 2 18z" />
<glyph unicode="e" horiz-adv-x="659" d="M123 279q-6 -37 -6 -72q0 -40 8 -76q14 -64 62.5 -105.5t140.5 -41.5q102 0 164 45q64 43 102.5 101t62.5 142l27 129h-192l-27 -122q-7 -38 -21 -58q-25 -55 -75 -55q-28 0 -41 16q-16 28 -16 65q0 15 3 32l54 243h342l67 326q7 35 6 68q0 38 -8 75q-15 67 -57 101 q-55 45 -146 45q-104 0 -161 -45q-122 -87 -168 -250zM401 684l35 158q7 29 23 57q29 57 78 57q28 0 41 -16q12 -20 12 -53q0 -20 -4 -45l-35 -158h-150z" />
<glyph unicode="f" horiz-adv-x="475" d="M125 0h207l196 934h105l41 186h-105l6 29q1 3 2.5 11t2.5 11q2 5 6 27q7 34 18 62q28 69 74 69q15 0 43 -4q2 -2 10 -2q6 0 8 -2l37 178l-22 6q-19 8 -70 8q-153 0 -238 -137q-13 -22 -24 -45.5t-19.5 -51.5t-13 -44.5t-12 -47t-8.5 -36.5l-7 -31h-104l-41 -186h105z" />
<glyph unicode="g" horiz-adv-x="700" d="M-27 -184q-5 -26 -5 -49q0 -79 61 -119q71 -46 229 -49q146 0 254 61q127 72 162 225q8 34 8 64q0 82 -61 133q-60 48 -179 63q-59 9 -102 23q-42 11 -42 38q0 4 1 9q6 28 39 51q4 -2 20 -2h19q49 0 96 15t92 46.5t81 87t56 128.5l68 317q0 6 2 10v11q-2 3 2 22v27 q46 24 125 24l39 185q-37 0 -107 -41q-37 -22 -83 -62q-51 103 -187 103q-101 0 -158 -45q-116 -81 -163 -240l-66 -305q-3 -22 -3 -52q0 -19 1 -40q4 -102 70 -152q-53 -24 -101 -72q-55 -52 -63 -96q-6 -23 -6 -42q0 -79 98 -107q-78 -33 -125 -70q-62 -49 -72 -100z M180 -150q10 53 96 99l103 -21q39 -6 57 -14q39 -14 39 -50q0 -7 -2 -16q-7 -32 -65 -57q-42 -18 -109 -18q-68 0 -97 21q-23 17 -23 44q0 6 1 12zM375 537l65 307q2 22 15 51q29 51 67 51q25 0 35 -16q11 -20 11 -47q0 -18 -5 -39l-65 -307q-4 -16 -17 -52q-27 -49 -67 -49 q-25 0 -35 17q-11 18 -11 42q0 19 7 42z" />
<glyph unicode="h" horiz-adv-x="690" d="M82 0h207l186 883q4 6 12 14q2 2 6.5 6t6.5 6q31 27 55 27q23 0 33.5 -10t5.5 -39l-188 -887h206l195 918q7 32 7 63q0 42 -13 82q-29 74 -105 74q-45 0 -112 -52q-16 -12 -49 -36q-17 -17 -29 -23l102 479h-207z" />
<glyph unicode="i" horiz-adv-x="370" d="M82 0h207l237 1120h-207zM356 1298h207l45 207h-207z" />
<glyph unicode="j" horiz-adv-x="364" d="M-123 -373q2 -2 8 -2q1 -1 5 -2t6 -2q21 -6 69 -6q153 0 236 135q10 18 19.5 39.5t15.5 37t13.5 41t10 36t9 37.5t7.5 30l244 1149h-207l-243 -1147q-4 -12 -4 -20q0 -1 -3 -11t-4 -16q-3 -8 -8 -26t-8 -27q-25 -63 -70 -63q-11 0 -39 4q-2 2 -8 2t-8 2zM350 1298h207 l45 207h-207z" />
<glyph unicode="k" horiz-adv-x="641" d="M82 0h207l82 387l39 66l10 16h10v-16l8 -453h199l-29 756l228 364h-187l-164 -293l-18 -36h-10l151 714h-207z" />
<glyph unicode="l" horiz-adv-x="370" d="M82 0h207l319 1505h-207z" />
<glyph unicode="m" horiz-adv-x="1021" d="M82 0h207l186 883q6 8 29 26q31 27 61 27q46 0 46 -36q0 -6 -1 -13l-188 -887h194l187 883q8 10 28 26q31 27 62 27q46 0 46 -36q0 -6 -1 -13l-188 -887h194l195 918q7 32 6 63q0 42 -12 82q-29 74 -105 74q-18 0 -57 -17q-73 -39 -117 -78q-12 -8 -23 -18q-8 -8 -16 -12 q-19 125 -115 125q-28 0 -55 -15q-48 -27 -110 -73q-17 -17 -29 -23l20 94h-207z" />
<glyph unicode="n" horiz-adv-x="690" d="M82 0h207l186 883q4 6 12 14q2 2 6.5 6t6.5 6q31 27 55 27q23 0 33.5 -10t5.5 -39l-188 -887h206l195 918q7 32 7 63q0 42 -13 82q-29 74 -105 74q-45 0 -112 -52q-16 -12 -49 -36q-17 -17 -29 -23l20 94h-207z" />
<glyph unicode="o" horiz-adv-x="657" d="M121 279q-6 -37 -6 -72q0 -40 8 -76q12 -61 57 -100q50 -47 144 -47q101 0 163 45q64 43 102 100.5t62 142.5l121 576q7 35 6 68q0 38 -8 75q-15 67 -57 101q-55 45 -146 45q-104 0 -161 -45q-64 -46 -102 -105.5t-62 -144.5zM315 279l121 563q3 31 19 57q26 57 75 57 q28 0 41 -16q13 -21 13 -52q0 -21 -6 -46l-121 -563q-3 -32 -19 -58q-25 -55 -76 -55q-27 0 -40 16q-13 23 -13 53q0 20 6 44z" />
<glyph unicode="p" horiz-adv-x="686" d="M0 -385h207l96 459q14 -16 43 -45q53 -45 103 -45q71 0 139 75q49 61 67 144l152 715q7 32 7 63q0 43 -13 82q-32 74 -109 74q-32 0 -59 -15q-50 -19 -123 -75l16 73h-207zM340 246l133 628q6 28 29 48t47 20q23 0 35 -20q8 -12 8 -30q0 -8 -2 -18l-133 -628 q-6 -29 -26.5 -48.5t-43.5 -19.5t-37 22q-11 15 -11 33q0 7 1 13z" />
<glyph unicode="q" horiz-adv-x="686" d="M117 203q-7 -35 -7 -65q0 -44 15 -79q24 -75 104 -75q34 0 62 14q55 23 121 76l-97 -459h207l320 1505h-207l-17 -73q-14 16 -43 45q-53 45 -102 45q-75 0 -135 -74q-51 -56 -70 -145zM332 246l133 628q6 29 26.5 48.5t43.5 19.5q24 0 39 -20q10 -13 10 -32q0 -8 -2 -16 l-133 -628q-5 -25 -29 -46.5t-47 -21.5t-35 20q-8 12 -8 30q0 8 2 18z" />
<glyph unicode="r" horiz-adv-x="503" d="M82 0h207l164 778q15 67 67 103q43 34 113 34q34 0 55 -8l47 230q-95 0 -170 -60q-47 -40 -65 -82l26 125h-207z" />
<glyph unicode="s" horiz-adv-x="630" d="M104 326q-13 -57 -13 -107q0 -59 18 -108q48 -127 213 -127q132 0 227 102q73 76 102 205q6 32 6 64q0 65 -26 130q-23 54 -99 148q-45 51 -69 96q-25 47 -25 84q0 11 2 21q13 58 31 86q25 45 61 45q39 0 50 -45v-8q0 -27 -11 -78h193q15 68 15 119q0 48 -13 81 q-40 103 -194 103h-9q-131 -3 -221 -103q-68 -79 -94 -200q-7 -37 -7 -71q0 -68 27 -128q26 -54 103 -146q32 -40 50 -66q17 -26 31 -63q9 -24 9 -47q0 -12 -2 -22q-29 -135 -101 -135q-53 0 -67 63q-2 14 -2 31q0 32 8 76h-193z" />
<glyph unicode="t" horiz-adv-x="501" d="M176 158q1 -18 4 -35q12 -67 52 -103t126 -36q50 0 80 6q3 1 9.5 2t9.5 2q2 1 7 2t7 2l43 203q-4 -2 -12 -2q-9 0 -13 -2q-28 -4 -53 -4q-40 0 -43 67q0 34 19 117l116 557h142l41 186h-142l58 277h-207l-58 -277h-104l-41 -186h105l-121 -574q-25 -120 -25 -185v-17z " />
<glyph unicode="u" horiz-adv-x="690" d="M121 203q-8 -36 -8 -67q0 -42 14 -77q24 -75 102 -75q20 0 60 16q40 23 104 74q18 16 27 20l-19 -94h207l238 1120h-207l-188 -882q-17 -21 -25 -27q-31 -27 -53 -27q-23 0 -34.5 10t-4.5 39l188 887h-207z" />
<glyph unicode="v" horiz-adv-x="602" d="M199 0h204l420 1120h-200l-207 -649l-23 -72h-16l6 72l72 649h-201z" />
<glyph unicode="w" horiz-adv-x="905" d="M186 0h172l193 535l24 63h9l-4 -63l-33 -535h172l403 1120h-188l-191 -585l-22 -64h-12l4 64l39 585h-123l-211 -585l-25 -64h-12l6 64l59 585h-188z" />
<glyph unicode="x" horiz-adv-x="618" d="M16 0h201l143 283l13 30h4v-30l24 -283h201l-72 578l293 542h-194l-129 -262l-15 -31h-4l2 31l-18 262h-195l60 -542z" />
<glyph unicode="y" horiz-adv-x="634" d="M-51 -397q50 -4 65 -4h25q110 0 217 100q83 78 137 217l455 1204h-203l-229 -688l-17 -57h-8l8 57l66 688h-203l-55 -1153q-6 -34 -21 -61q-35 -69 -90 -103q-25 -16 -59.5 -19t-36.5 1q-10 0 -12 2z" />
<glyph unicode="z" horiz-adv-x="532" d="M12 0h504l39 188h-285l447 764l37 168h-459l-41 -188h240l-447 -764z" />
<glyph unicode="{" horiz-adv-x="688" d="M156 453q67 -2 94 -62q21 -49 8 -78l-84 -397q-25 -117 -16 -188.5t53 -112.5q41 -40 118.5 -55t205.5 -13l34 172q-72 0 -113.5 7.5t-64.5 29.5q-46 43 -20 160l84 397q17 77 -3.5 129.5t-76.5 92.5q72 39 115 91t59 130l84 397q26 118 90 160q56 37 195 37l34 172 q-124 2 -208.5 -13.5t-143.5 -54.5q-61 -42 -100 -113.5t-64 -187.5l-84 -397q-8 -23 -12 -33q-9 -23 -29 -47q-49 -60 -121 -60z" />
<glyph unicode="|" horiz-adv-x="356" d="M-27 -512h191l469 2204h-193z" />
<glyph unicode="}" horiz-adv-x="688" d="M-37 -453q124 -2 208.5 13.5t143.5 54.5q60 41 98.5 112.5t63.5 188.5l84 397q24 55 41 78q48 59 119 62l35 163q-74 0 -92 60q-22 49 -9 80l84 397q25 117 17.5 188.5t-51.5 112.5q-41 40 -119.5 55t-206.5 13l-35 -172q72 0 113.5 -7.5t64.5 -29.5q47 -44 21 -160 l-84 -397q-17 -79 3.5 -131t76.5 -90q-71 -40 -114 -93t-60 -129l-84 -397q-14 -62 -35 -99.5t-56 -60.5q-33 -22 -76.5 -29.5t-115.5 -7.5z" />
<glyph unicode="~" horiz-adv-x="1280" d="M399 1352l123 -58q22 42 66 90q83 91 174 91q43 0 80 -19t82 -55q54 -38 75 -52t71 -31.5t104 -17.5q82 0 155 48q70 46 126 108.5t112 153.5l-123 57q-42 -64 -68 -92q-79 -90 -162 -90q-73 0 -159 71q-15 10 -51 37q-17 11 -56 33q-75 33 -147 33q-87 0 -164 -47 q-151 -102 -238 -260z" />
<glyph horiz-adv-x="624" d="M268 1012h215l47 227h-71l129 266h-103l-170 -266zM571 1012h215l48 227h-72l129 266h-103l-170 -266z" />
<glyph horiz-adv-x="624" d="M268 1012h103l168 266l49 227h-215l-49 -227h71zM571 1012h103l168 266l49 227h-215l-49 -227h71z" />
<glyph unicode="&#xa1;" horiz-adv-x="387" d="M-6 -385h237l179 1100h-129zM274 893h215l50 227h-215z" />
<glyph unicode="&#xa2;" horiz-adv-x="636" d="M172 508q-64 -300 139 -330l-63 -301h123l63 303q100 14 161.5 87.5t96.5 230.5l23 108h-189l-32 -155q-10 -49 -33 -70t-60 -21q-38 0 -49 27t-4 64l129 604q7 36 29.5 63t60.5 27q37 0 51.5 -20.5t4.5 -69.5l-29 -135h188l19 88q30 156 0.5 226.5t-123.5 88.5l51 244 h-123l-51 -242q-215 -30 -279 -328z" />
<glyph unicode="&#xa3;" horiz-adv-x="817" d="M16 63l129 -79q15 27 39 51q51 51 97 51q7 0 15 -1.5t14 -3t15 -5.5t14 -6t15.5 -8l14 -8t15.5 -9.5t15 -9.5q70 -41 103 -48q15 -3 30 -3q102 0 191 98t141 283l-182 22q-28 -108 -59 -145q-36 -42 -64 -45q-37 3 -59 22q-27 20 -62 37q39 57 68 119q30 69 41.5 124 t7.5 150h174l29 137h-211v25q-1 6 -3 34t-3 35.5t-3 33t-2 35.5t-1 32.5t-0.5 35t1 32.5t2.5 34.5t4.5 32t6.5 33.5q15 73 43 113q38 55 82 55q68 0 80 -60q11 -54 -6 -137h213q40 172 -7 279q-59 126 -241 123q-151 -3 -256 -123q-89 -101 -117 -250q-3 -12 -4.5 -27 t-3 -28t-1.5 -32v-31.5t1 -35.5l1.5 -34.5t2 -38.5t2.5 -37t3 -39.5t3 -38.5l2 -21h-147l-29 -137h188q9 -97 -6 -174q-28 -116 -80 -199q-52 -9 -100 -45q-96 -73 -156 -168z" />
<glyph unicode="&#xa5;" horiz-adv-x="720" d="M145 340h177l-72 -340h221l72 340h176l29 137h-177l29 137h176l31 138h-148l357 753h-217l-213 -481l-11 -14h-4l-2 14l-8 481h-217l37 -753h-148l-30 -138h176l-29 -137h-176z" />
<glyph unicode="&#xa8;" horiz-adv-x="1024" d="M549 1305h190l43 200h-190zM838 1305h190l43 200h-190z" />
<glyph unicode="&#xa9;" horiz-adv-x="1644" d="M209 452.5q29 -136.5 113 -243.5q87 -107 213 -166t282 -59q157 0 309.5 59t282.5 166q130 105 218.5 244.5t123.5 298.5q34 162 4.5 300t-115.5 244q-83 106 -211.5 166t-285.5 60q-310 0 -590 -226q-129 -105 -217 -245.5t-123 -298.5q-33 -163 -4 -299.5zM332 752 q58 267 289 460q232 191 497 191q134 0 242 -49.5t178 -141.5q152 -192 94 -460q-57 -263 -289 -457q-111 -92 -239.5 -142.5t-261.5 -50.5q-263 0 -416 193q-152 191 -94 457zM729 487q-12 -54 2 -98q28 -98 150 -98q77 0 137.5 47.5t91.5 148.5l27 125h-138l-26 -125 q0 -15 -10 -32q-19 -31 -54 -31q-17 0 -24 10q-17 17 -11 53l113 531q3 16 12 31q20 32 52 32q18 0 28 -10q15 -20 6 -53l-26 -125h137l27 125q8 50 -4 98q-28 98 -142 98q-75 0 -121 -30q-92 -64 -114 -166z" />
<glyph unicode="&#xad;" horiz-adv-x="444" d="M170 455h297l41 194h-297z" />
<glyph unicode="&#xae;" horiz-adv-x="1644" d="M209 452.5q29 -136.5 113 -243.5q87 -107 213 -166t282 -59q157 0 309.5 59t282.5 166q130 105 218.5 244.5t123.5 298.5q34 162 4.5 300t-115.5 244q-83 106 -211.5 166t-285.5 60q-310 0 -590 -226q-129 -105 -217 -245.5t-123 -298.5q-33 -163 -4 -299.5zM332 752 q58 267 289 460q232 191 497 191q134 0 242 -49.5t178 -141.5q152 -192 94 -460q-57 -263 -289 -457q-111 -92 -239.5 -142.5t-261.5 -50.5q-263 0 -416 193q-152 191 -94 457zM690 313h146l77 365h56l16 -365h152l-23 400q66 47 92.5 95.5t42.5 125.5q55 258 -176 258h-196 zM940 805l55 258h45q64 0 74 -43q8 -25 -4 -88q-11 -55 -33 -86q-27 -41 -92 -41h-45z" />
<glyph unicode="&#xaf;" horiz-adv-x="1024" d="M592 1315h397l35 162h-397z" />
<glyph unicode="&#xb4;" horiz-adv-x="1024" d="M686 1305h160l201 184h-216z" />
<glyph unicode="&#xb7;" horiz-adv-x="215" d="M137 649h215l47 228h-215z" />
<glyph unicode="&#xb8;" horiz-adv-x="1024" d="M367 -385h104l72 133l30 141h-172l-30 -141h63z" />
<glyph unicode="&#xbf;" horiz-adv-x="645" d="M10 -182q0 -45 19 -94q42 -114 194 -117q124 -3 240 102q54 47 127 152l-160 84q-2 -3 -10 -17.5t-14 -23.5q-17 -27 -37 -47q-54 -58 -101 -58q-22 0 -32 13q-21 18 -21 57q0 13 4 25q17 39 78 112q91 113 131 182q72 131 102 271l56 256h-191l-55 -256 q-10 -47 -35 -107q-45 -98 -106 -172q-3 -4 -9 -11.5t-11 -13.5t-9 -10q-7 -7 -27 -32q-34 -44 -77 -105q-56 -81 -56 -190zM420 893h215l49 227h-215z" />
<glyph unicode="&#xc0;" horiz-adv-x="765" d="M20 0h216l104 307h213l-23 -307h215l93 1505h-271zM422 541l164 475l14 39h12l-2 -39l-37 -475h-151zM528 1823l123 -185h160l-68 185h-215z" />
<glyph unicode="&#xc1;" horiz-adv-x="765" d="M20 0h216l104 307h213l-23 -307h215l93 1505h-271zM422 541l164 475l14 39h12l-2 -39l-37 -475h-151zM641 1638h160l200 185h-215z" />
<glyph unicode="&#xc2;" horiz-adv-x="765" d="M20 0h216l104 307h213l-23 -307h215l93 1505h-271zM422 541l164 475l14 39h12l-2 -39l-37 -475h-151zM481 1638h189l75 72l50 -72h188l-102 185h-219z" />
<glyph unicode="&#xc3;" horiz-adv-x="765" d="M20 0h216l104 307h213l-23 -307h215l93 1505h-271zM422 541l164 475l14 39h12l-2 -39l-37 -475h-151zM530 1632q3 1 9.5 4t9.5 4t9 4.5t9 4.5q46 16 78 16q44 -3 88 -20q40 -19 84 -19q22 0 43 6q42 8 74 33l33 152q-3 -1 -9.5 -4.5t-9.5 -4.5t-9 -4t-9 -4 q-50 -16 -78 -16q-47 3 -86 22q-49 17 -86 17q-25 0 -43 -6q-39 -11 -74 -33z" />
<glyph unicode="&#xc4;" horiz-adv-x="765" d="M20 0h216l104 307h213l-23 -307h215l93 1505h-271zM422 541l164 475l14 39h12l-2 -39l-37 -475h-151zM492 1638h190l41 201h-191zM780 1638h191l41 201h-191z" />
<glyph unicode="&#xc5;" horiz-adv-x="765" d="M20 0h216l104 307h213l-23 -307h215l93 1505h-271zM422 541l164 475l14 39h12l-2 -39l-37 -475h-151zM604 1761q-12 -62 23.5 -102.5t99.5 -40.5t117 40.5t65 102.5q13 62 -22 103t-99 41t-117.5 -41t-66.5 -103zM682 1761q6 29 34 50.5t58 21.5t48 -21.5t12 -50.5 t-33.5 -50t-57.5 -21t-48.5 21t-12.5 50z" />
<glyph unicode="&#xc6;" horiz-adv-x="1099" d="M16 0h220l153 307h227l-63 -307h506l47 227h-285l88 414h205l51 242h-204l83 395h285l49 227h-622zM508 541l258 514h10l-108 -514h-160z" />
<glyph unicode="&#xc7;" horiz-adv-x="708" d="M133 309q-18 -96 2 -164q13 -67 62 -110q54 -51 161 -51q110 0 181 51q58 38 112 110q48 73 72 164l43 207h-207l-43 -207q-7 -29 -20 -55q-28 -55 -88 -55q-26 0 -39 16q-24 35 -15 94l189 887q6 21 20 55q33 56 80 56q33 0 47 -17q27 -35 15 -94l-46 -207h207l45 207 q16 99 -4 162q-13 68 -63 112q-59 52 -160 52q-103 0 -182 -52q-52 -35 -111 -112q-47 -70 -69 -162zM209 -385h104l72 133l31 141h-172l-31 -141h63z" />
<glyph unicode="&#xc8;" horiz-adv-x="628" d="M82 0h506l47 227h-285l88 414h205l51 242h-205l84 395h285l49 227h-506zM498 1823l123 -185h159l-67 185h-215z" />
<glyph unicode="&#xc9;" horiz-adv-x="628" d="M82 0h506l47 227h-285l88 414h205l51 242h-205l84 395h285l49 227h-506zM584 1638h159l201 185h-215z" />
<glyph unicode="&#xca;" horiz-adv-x="628" d="M82 0h506l47 227h-285l88 414h205l51 242h-205l84 395h285l49 227h-506zM432 1638h189l75 72l49 -72h189l-103 185h-219z" />
<glyph unicode="&#xcb;" horiz-adv-x="628" d="M82 0h506l47 227h-285l88 414h205l51 242h-205l84 395h285l49 227h-506zM442 1638h191l41 201h-191zM731 1638h191l41 201h-191z" />
<glyph unicode="&#xcc;" horiz-adv-x="401" d="M98 0h221l320 1505h-221zM381 1823l123 -185h160l-68 185h-215z" />
<glyph unicode="&#xcd;" horiz-adv-x="401" d="M82 0h221l320 1505h-222zM434 1638h160l201 185h-215z" />
<glyph unicode="&#xce;" horiz-adv-x="370" d="M74 0h221l319 1505h-221zM283 1638h188l76 72l49 -72h188l-102 185h-219z" />
<glyph unicode="&#xcf;" horiz-adv-x="372" d="M76 0h221l319 1505h-221zM295 1638h190l41 201h-190zM584 1638h190l41 201h-190z" />
<glyph unicode="&#xd0;" horiz-adv-x="761" d="M82 0h174q156 0 251 35.5t157 120.5q57 80 98 214t94 382q26 124 41 205t25.5 160t9 135t-13.5 98q-29 85 -108 120t-235 35h-174l-133 -622h-61l-47 -228h61zM348 221l94 434h84l47 228h-84l86 401q64 0 91.5 -15t31.5 -65q8 -73 -36 -284q-4 -18 -16 -75t-19 -91 q-1 -6 -35 -164q-42 -205 -84 -287q-27 -52 -61.5 -67t-98.5 -15z" />
<glyph unicode="&#xd1;" horiz-adv-x="808" d="M82 0h203l180 854h12l4 -70l49 -784h197l320 1505h-203l-182 -854h-13l-4 70l-47 784h-197zM553 1632q3 1 9 4t9 4t9.5 4.5t9.5 4.5q46 16 78 16q44 -3 88 -20q40 -19 84 -19q22 0 43 6q41 8 73 33l33 152q-3 -1 -9 -4.5t-9 -4.5t-9.5 -4t-9.5 -4q-50 -16 -78 -16 q-47 3 -86 22q-49 17 -86 17q-25 0 -43 -6q-37 -11 -73 -33z" />
<glyph unicode="&#xd2;" d="M133 309q-18 -96 2 -164q13 -67 62 -110q54 -51 161 -51q110 0 181 51q58 38 112 110q48 73 72 164l188 887q16 99 -4 162q-13 68 -63 112q-59 52 -160 52q-103 0 -182 -52q-52 -35 -111 -112q-47 -70 -69 -162zM354 309l189 887q6 32 18 55q29 56 78 56q27 0 41 -17 q21 -35 10 -94l-188 -887q-6 -25 -21 -55q-25 -55 -78 -55q-25 0 -38 16q-26 37 -11 94zM508 1823l123 -185h160l-68 185h-215z" />
<glyph unicode="&#xd3;" d="M133 309q-18 -96 2 -164q13 -67 62 -110q54 -51 161 -51q110 0 181 51q58 38 112 110q48 73 72 164l188 887q16 99 -4 162q-13 68 -63 112q-59 52 -160 52q-103 0 -182 -52q-52 -35 -111 -112q-47 -70 -69 -162zM354 309l189 887q6 32 18 55q29 56 78 56q27 0 41 -17 q21 -35 10 -94l-188 -887q-6 -25 -21 -55q-25 -55 -78 -55q-25 0 -38 16q-26 37 -11 94zM633 1638h160l200 185h-215z" />
<glyph unicode="&#xd4;" d="M133 309q-18 -96 2 -164q13 -67 62 -110q54 -51 161 -51q110 0 181 51q58 38 112 110q48 73 72 164l188 887q16 99 -4 162q-13 68 -63 112q-59 52 -160 52q-103 0 -182 -52q-52 -35 -111 -112q-47 -70 -69 -162zM354 309l189 887q6 32 18 55q29 56 78 56q27 0 41 -17 q21 -35 10 -94l-188 -887q-6 -25 -21 -55q-25 -55 -78 -55q-25 0 -38 16q-26 37 -11 94zM461 1638h188l76 72l49 -72h189l-103 185h-219z" />
<glyph unicode="&#xd5;" d="M133 309q-18 -96 2 -164q13 -67 62 -110q54 -51 161 -51q110 0 181 51q58 38 112 110q48 73 72 164l188 887q16 99 -4 162q-13 68 -63 112q-59 52 -160 52q-103 0 -182 -52q-52 -35 -111 -112q-47 -70 -69 -162zM354 309l189 887q6 32 18 55q29 56 78 56q27 0 41 -17 q21 -35 10 -94l-188 -887q-6 -25 -21 -55q-25 -55 -78 -55q-25 0 -38 16q-26 37 -11 94zM510 1632q3 1 9 4t9 4t9.5 4.5t9.5 4.5q46 16 78 16q44 -3 88 -20q40 -19 84 -19q22 0 43 6q41 8 73 33l33 152q-3 -1 -9 -4.5t-9 -4.5t-9.5 -4t-9.5 -4q-50 -16 -78 -16q-47 3 -86 22 q-49 17 -86 17q-25 0 -43 -6q-37 -11 -73 -33z" />
<glyph unicode="&#xd6;" d="M133 309q-18 -96 2 -164q13 -67 62 -110q54 -51 161 -51q110 0 181 51q58 38 112 110q48 73 72 164l188 887q16 99 -4 162q-13 68 -63 112q-59 52 -160 52q-103 0 -182 -52q-52 -35 -111 -112q-47 -70 -69 -162zM354 309l189 887q6 32 18 55q29 56 78 56q27 0 41 -17 q21 -35 10 -94l-188 -887q-6 -25 -21 -55q-25 -55 -78 -55q-25 0 -38 16q-26 37 -11 94zM471 1638h191l40 201h-190zM760 1638h190l41 201h-190z" />
<glyph unicode="&#xd8;" d="M53 -20h129l25 47q55 -43 151 -43q110 0 181 51q58 38 112 110q48 73 72 164l188 887q4 20 4 29q0 13 3 28q0 77 -15 123l78 150h-123l-24 -47q-55 43 -150 43q-103 0 -182 -52q-52 -35 -111 -112q-47 -70 -69 -162l-189 -887q-4 -20 -4 -26q-1 -5 -2 -14.5t-2 -14.5 q-5 -74 10 -117zM354 309l250 488l-102 -488q-6 -25 -21 -55q-25 -55 -78 -55q-25 0 -38 16q-26 37 -11 94zM442 727l101 469q6 32 18 55q29 56 78 56q42 0 53 -41q3 -42 0 -60z" />
<glyph unicode="&#xd9;" horiz-adv-x="749" d="M145 309q-18 -96 2 -164q13 -67 62 -110q54 -51 162 -51q109 0 180 51q60 39 113 110q46 70 71 164l254 1196h-221l-254 -1196q-7 -29 -20 -55q-25 -55 -78 -55q-26 0 -39 16q-25 36 -10 94l254 1196h-222zM532 1823l123 -185h160l-67 185h-216z" />
<glyph unicode="&#xda;" horiz-adv-x="749" d="M145 309q-18 -96 2 -164q13 -67 62 -110q54 -51 162 -51q109 0 180 51q60 39 113 110q46 70 71 164l254 1196h-221l-254 -1196q-7 -29 -20 -55q-25 -55 -78 -55q-26 0 -39 16q-25 36 -10 94l254 1196h-222zM655 1638h160l201 185h-215z" />
<glyph unicode="&#xdb;" horiz-adv-x="749" d="M145 309q-18 -96 2 -164q13 -67 62 -110q54 -51 162 -51q109 0 180 51q60 39 113 110q46 70 71 164l254 1196h-221l-254 -1196q-7 -29 -20 -55q-25 -55 -78 -55q-26 0 -39 16q-25 36 -10 94l254 1196h-222zM473 1638h189l75 72l49 -72h189l-103 185h-219z" />
<glyph unicode="&#xdc;" horiz-adv-x="749" d="M145 309q-18 -96 2 -164q13 -67 62 -110q54 -51 162 -51q109 0 180 51q60 39 113 110q46 70 71 164l254 1196h-221l-254 -1196q-7 -29 -20 -55q-25 -55 -78 -55q-26 0 -39 16q-25 36 -10 94l254 1196h-222zM483 1638h191l41 201h-191zM772 1638h191l41 201h-191z" />
<glyph unicode="&#xdd;" horiz-adv-x="704" d="M242 0h221l135 641l410 864h-217l-213 -481l-11 -14h-4l-2 14l-8 481h-217l41 -864zM602 1638h160l201 185h-215z" />
<glyph unicode="&#xde;" d="M82 0h221l76 360q166 0 287 99q145 118 198 354q53 234 -47 356q-78 95 -246 95h-2l52 241h-220zM426 586l96 452q101 0 125 -53q20 -49 -8 -180q-28 -132 -68 -172q-42 -47 -145 -47z" />
<glyph unicode="&#xdf;" horiz-adv-x="733" d="M66 0h206l263 1235q8 44 33 73t61 29q43 0 59.5 -28.5t5.5 -71.5q-12 -53 -43 -85t-67 -32l-31 -141q72 0 82 -72q7 -48 -2 -121q-5 -46 -39 -211q-50 -235 -98 -315q-38 -67 -111 -67l-39 -193q88 0 151.5 21t116.5 79q116 128 187 475q46 209 30 338q-14 108 -77 150 q102 66 125 174q26 121 -23 201q-54 84 -188 84t-230 -86q-83 -72 -110 -201z" />
<glyph unicode="&#xe0;" horiz-adv-x="681" d="M102 260q-33 -153 17 -225q31 -51 92 -51t117 39q41 29 71 67h15q-6 -14 -7.5 -41.5t7.5 -48.5h202q4 94 27 195l145 688q24 110 -36 182t-162 72q-116 0 -217 -88q-99 -92 -125 -211l-8 -47h206q1 5 2.5 14t2.5 12q3 12 6 27q3 8 8 26t8 27q25 59 68 59q37 0 43 -34 q3 -33 -9 -68l-26 -123q-3 -5 -7.5 -9.5t-11.5 -9.5t-13 -8.5t-17.5 -9t-18.5 -9t-22 -10.5t-23 -11q-120 -59 -188 -127q-110 -110 -146 -277zM309 229q-3 40 4 62q19 86 68 152.5t129 97.5l-61 -287q-6 -29 -35.5 -48.5t-65.5 -19.5q-29 0 -39 43zM418 1489l123 -184h159 l-67 184h-215z" />
<glyph unicode="&#xe1;" horiz-adv-x="681" d="M102 260q-33 -153 17 -225q31 -51 92 -51t117 39q41 29 71 67h15q-6 -14 -7.5 -41.5t7.5 -48.5h202q4 94 27 195l145 688q24 110 -36 182t-162 72q-116 0 -217 -88q-99 -92 -125 -211l-8 -47h206q1 5 2.5 14t2.5 12q3 12 6 27q3 8 8 26t8 27q25 59 68 59q37 0 43 -34 q3 -33 -9 -68l-26 -123q-3 -5 -7.5 -9.5t-11.5 -9.5t-13 -8.5t-17.5 -9t-18.5 -9t-22 -10.5t-23 -11q-120 -59 -188 -127q-110 -110 -146 -277zM309 229q-3 40 4 62q19 86 68 152.5t129 97.5l-61 -287q-6 -29 -35.5 -48.5t-65.5 -19.5q-29 0 -39 43zM541 1305h159l201 184 h-215z" />
<glyph unicode="&#xe2;" horiz-adv-x="681" d="M102 260q-33 -153 17 -225q31 -51 92 -51t117 39q41 29 71 67h15q-6 -14 -7.5 -41.5t7.5 -48.5h202q4 94 27 195l145 688q24 110 -36 182t-162 72q-116 0 -217 -88q-99 -92 -125 -211l-8 -47h206q1 5 2.5 14t2.5 12q3 12 6 27q3 8 8 26t8 27q25 59 68 59q37 0 43 -34 q3 -33 -9 -68l-26 -123q-3 -5 -7.5 -9.5t-11.5 -9.5t-13 -8.5t-17.5 -9t-18.5 -9t-22 -10.5t-23 -11q-120 -59 -188 -127q-110 -110 -146 -277zM309 229q-3 40 4 62q19 86 68 152.5t129 97.5l-61 -287q-6 -29 -35.5 -48.5t-65.5 -19.5q-29 0 -39 43zM367 1305h188l76 71 l49 -71h188l-102 184h-219z" />
<glyph unicode="&#xe3;" horiz-adv-x="681" d="M102 260q-33 -153 17 -225q31 -51 92 -51t117 39q41 29 71 67h15q-6 -14 -7.5 -41.5t7.5 -48.5h202q4 94 27 195l145 688q24 110 -36 182t-162 72q-116 0 -217 -88q-99 -92 -125 -211l-8 -47h206q1 5 2.5 14t2.5 12q3 12 6 27q3 8 8 26t8 27q25 59 68 59q37 0 43 -34 q3 -33 -9 -68l-26 -123q-3 -5 -7.5 -9.5t-11.5 -9.5t-13 -8.5t-17.5 -9t-18.5 -9t-22 -10.5t-23 -11q-120 -59 -188 -127q-110 -110 -146 -277zM309 229q-3 40 4 62q19 86 68 152.5t129 97.5l-61 -287q-6 -29 -35.5 -48.5t-65.5 -19.5q-29 0 -39 43zM420 1305q3 1 9 4t9 4 t9.5 4t9.5 4q46 16 78 16q44 -3 88 -20q40 -19 84 -19q19 0 43 7q42 8 73 32l33 152q-3 -1 -9 -4t-9 -4t-9.5 -4t-9.5 -4q-53 -17 -78 -17q-45 3 -86 23q-46 16 -86 16q-25 0 -43 -6q-37 -11 -73 -33z" />
<glyph unicode="&#xe4;" horiz-adv-x="681" d="M102 260q-33 -153 17 -225q31 -51 92 -51t117 39q41 29 71 67h15q-6 -14 -7.5 -41.5t7.5 -48.5h202q4 94 27 195l145 688q24 110 -36 182t-162 72q-116 0 -217 -88q-99 -92 -125 -211l-8 -47h206q1 5 2.5 14t2.5 12q3 12 6 27q3 8 8 26t8 27q25 59 68 59q37 0 43 -34 q3 -33 -9 -68l-26 -123q-3 -5 -7.5 -9.5t-11.5 -9.5t-13 -8.5t-17.5 -9t-18.5 -9t-22 -10.5t-23 -11q-120 -59 -188 -127q-110 -110 -146 -277zM309 229q-3 40 4 62q19 86 68 152.5t129 97.5l-61 -287q-6 -29 -35.5 -48.5t-65.5 -19.5q-29 0 -39 43zM379 1305h190l43 200 h-190zM668 1305h190l43 200h-190z" />
<glyph unicode="&#xe5;" horiz-adv-x="681" d="M102 260q-33 -153 17 -225q31 -51 92 -51t117 39q41 29 71 67h15q-6 -14 -7.5 -41.5t7.5 -48.5h202q4 94 27 195l145 688q24 110 -36 182t-162 72q-116 0 -217 -88q-99 -92 -125 -211l-8 -47h206q1 5 2.5 14t2.5 12q3 12 6 27q3 8 8 26t8 27q25 59 68 59q37 0 43 -34 q3 -33 -9 -68l-26 -123q-3 -5 -7.5 -9.5t-11.5 -9.5t-13 -8.5t-17.5 -9t-18.5 -9t-22 -10.5t-23 -11q-120 -59 -188 -127q-110 -110 -146 -277zM309 229q-3 40 4 62q19 86 68 152.5t129 97.5l-61 -287q-6 -29 -35.5 -48.5t-65.5 -19.5q-29 0 -39 43zM489 1421 q-13 -62 23 -102.5t100 -40.5t117 40.5t66 102.5t-22 103t-99 41t-118 -41t-67 -103zM567 1421q6 29 33 50.5t57 21.5t49 -21.5t13 -50.5t-33 -50t-57 -21t-49 21t-13 50z" />
<glyph unicode="&#xe6;" horiz-adv-x="989" d="M102 260q-33 -153 17 -225q31 -51 92 -51q121 0 248 131q44 -131 198 -131q102 0 164 45q65 43 103.5 101t62.5 142l27 129h-193l-26 -122q-7 -38 -21 -58q-25 -55 -76 -55q-28 0 -41 16q-21 38 -12 97l53 243h342l68 326q14 75 -2 143q-15 67 -57 101q-55 45 -146 45 q-93 0 -172 -52q-52 52 -141 52q-116 0 -217 -88q-99 -92 -125 -211l-8 -47h206q1 5 2.5 14t2.5 12q3 12 6 27q3 8 8 26t8 27q25 59 68 59q37 0 43 -34q3 -33 -9 -68l-26 -123q-3 -5 -7.5 -9.5t-11.5 -9.5t-13 -8.5t-17.5 -9t-18.5 -9t-22 -10.5t-23 -11q-120 -59 -188 -127 q-110 -110 -146 -277zM309 229q-3 40 4 62q19 86 68 152.5t129 97.5l-61 -287q-6 -29 -35.5 -48.5t-65.5 -19.5q-29 0 -39 43zM731 684l35 158q8 32 22 57q29 57 78 57q28 0 41 -16q20 -32 8 -98l-34 -158h-150z" />
<glyph unicode="&#xe7;" horiz-adv-x="645" d="M131 315q-38 -174 21 -260q54 -71 174 -71q138 0 213 67q81 72 120 254l23 109h-207l-33 -156q-11 -52 -26.5 -71t-50.5 -19q-20 0 -30.5 7.5t-12.5 23t-1 27.5t5 32l129 604q5 27 10.5 43t22 31.5t42.5 15.5q35 0 43.5 -19.5t-2.5 -70.5l-28 -135h207l18 88 q39 180 -14 254q-46 68 -185 68q-122 0 -202 -72q-93 -83 -131 -260zM178 -385h105l71 133l31 141h-172l-31 -141h64z" />
<glyph unicode="&#xe8;" horiz-adv-x="659" d="M123 279q-13 -80 2 -148q14 -64 62.5 -105.5t140.5 -41.5q102 0 164 45q64 43 102.5 101t62.5 142l27 129h-192l-27 -122q-7 -38 -21 -58q-25 -55 -75 -55q-28 0 -41 16q-22 39 -13 97l54 243h342l67 326q14 75 -2 143q-15 67 -57 101q-55 45 -146 45q-104 0 -161 -45 q-122 -87 -168 -250zM401 684l35 158q7 29 23 57q29 57 78 57q28 0 41 -16q20 -32 8 -98l-35 -158h-150zM418 1489l123 -184h159l-67 184h-215z" />
<glyph unicode="&#xe9;" horiz-adv-x="659" d="M123 279q-13 -80 2 -148q14 -64 62.5 -105.5t140.5 -41.5q102 0 164 45q64 43 102.5 101t62.5 142l27 129h-192l-27 -122q-7 -38 -21 -58q-25 -55 -75 -55q-28 0 -41 16q-22 39 -13 97l54 243h342l67 326q14 75 -2 143q-15 67 -57 101q-55 45 -146 45q-104 0 -161 -45 q-122 -87 -168 -250zM401 684l35 158q7 29 23 57q29 57 78 57q28 0 41 -16q20 -32 8 -98l-35 -158h-150zM541 1305h159l201 184h-215z" />
<glyph unicode="&#xea;" horiz-adv-x="659" d="M123 279q-13 -80 2 -148q14 -64 62.5 -105.5t140.5 -41.5q102 0 164 45q64 43 102.5 101t62.5 142l27 129h-192l-27 -122q-7 -38 -21 -58q-25 -55 -75 -55q-28 0 -41 16q-22 39 -13 97l54 243h342l67 326q14 75 -2 143q-15 67 -57 101q-55 45 -146 45q-104 0 -161 -45 q-122 -87 -168 -250zM356 1305h189l76 71l49 -71h188l-102 184h-219zM401 684l35 158q7 29 23 57q29 57 78 57q28 0 41 -16q20 -32 8 -98l-35 -158h-150z" />
<glyph unicode="&#xeb;" horiz-adv-x="659" d="M123 279q-13 -80 2 -148q14 -64 62.5 -105.5t140.5 -41.5q102 0 164 45q64 43 102.5 101t62.5 142l27 129h-192l-27 -122q-7 -38 -21 -58q-25 -55 -75 -55q-28 0 -41 16q-22 39 -13 97l54 243h342l67 326q14 75 -2 143q-15 67 -57 101q-55 45 -146 45q-104 0 -161 -45 q-122 -87 -168 -250zM367 1305h190l43 200h-190zM401 684l35 158q7 29 23 57q29 57 78 57q28 0 41 -16q20 -32 8 -98l-35 -158h-150zM655 1305h191l43 200h-191z" />
<glyph unicode="&#xec;" horiz-adv-x="370" d="M82 0h207l237 1120h-207zM283 1489l123 -184h159l-67 184h-215z" />
<glyph unicode="&#xed;" horiz-adv-x="370" d="M82 0h207l237 1120h-207zM358 1305h160l201 184h-215z" />
<glyph unicode="&#xee;" horiz-adv-x="370" d="M82 0h207l237 1120h-207zM211 1305h188l76 71l49 -71h189l-103 184h-219z" />
<glyph unicode="&#xef;" horiz-adv-x="372" d="M82 0h207l237 1120h-207zM223 1305h191l43 200h-191zM512 1305h190l43 200h-190z" />
<glyph unicode="&#xf0;" horiz-adv-x="673" d="M133 279q-13 -80 2 -148q12 -60 58 -100q50 -47 143 -47q102 0 164 45q64 43 102 100.5t62 142.5l139 656q53 254 -31 446l119 88l-41 66l-111 -82q-2 3 -7 11.5t-7 12.5q-1 1 -6 11l-8 8l-13 18l-129 -100q0 -7 9 -16q1 -3 10 -21q4 -15 12 -29l-119 -88l41 -63l96 72 q21 -83 9 -203q-78 78 -140 78q-112 0 -176 -123q-23 -43 -37 -89t-16 -67zM328 279l121 563q3 33 18 57q26 57 76 57q28 0 41 -16q21 -34 6 -98l-121 -563q-3 -34 -18 -58q-25 -55 -76 -55q-28 0 -41 16q-21 38 -6 97z" />
<glyph unicode="&#xf1;" horiz-adv-x="690" d="M82 0h207l186 883q4 6 12 14q2 2 6.5 6t6.5 6q31 27 55 27q23 0 33.5 -10t5.5 -39l-188 -887h206l195 918q16 77 -6 145q-29 74 -105 74q-45 0 -112 -52q-16 -12 -49 -36q-17 -17 -29 -23l20 94h-207zM424 1305q3 1 9 4t9 4t9.5 4t9.5 4q46 16 78 16q44 -3 88 -20 q40 -19 84 -19q19 0 43 7q42 8 73 32l33 152q-3 -1 -9 -4t-9 -4t-9.5 -4t-9.5 -4q-53 -17 -78 -17q-45 3 -86 23q-46 16 -86 16q-25 0 -43 -6q-37 -11 -73 -33z" />
<glyph unicode="&#xf2;" horiz-adv-x="657" d="M121 279q-13 -80 2 -148q12 -61 57 -100q50 -47 144 -47q101 0 163 45q64 43 102 100.5t62 142.5l121 576q14 75 -2 143q-15 67 -57 101q-55 45 -146 45q-104 0 -161 -45q-64 -46 -102 -105.5t-62 -144.5zM315 279l121 563q3 31 19 57q26 57 75 57q28 0 41 -16 q22 -35 7 -98l-121 -563q-3 -32 -19 -58q-25 -55 -76 -55q-27 0 -40 16q-22 39 -7 97zM414 1489l123 -184h159l-67 184h-215z" />
<glyph unicode="&#xf3;" horiz-adv-x="657" d="M121 279q-13 -80 2 -148q12 -61 57 -100q50 -47 144 -47q101 0 163 45q64 43 102 100.5t62 142.5l121 576q14 75 -2 143q-15 67 -57 101q-55 45 -146 45q-104 0 -161 -45q-64 -46 -102 -105.5t-62 -144.5zM315 279l121 563q3 31 19 57q26 57 75 57q28 0 41 -16 q22 -35 7 -98l-121 -563q-3 -32 -19 -58q-25 -55 -76 -55q-27 0 -40 16q-22 39 -7 97zM537 1305h159l201 184h-215z" />
<glyph unicode="&#xf4;" horiz-adv-x="657" d="M121 279q-13 -80 2 -148q12 -61 57 -100q50 -47 144 -47q101 0 163 45q64 43 102 100.5t62 142.5l121 576q14 75 -2 143q-15 67 -57 101q-55 45 -146 45q-104 0 -161 -45q-64 -46 -102 -105.5t-62 -144.5zM315 279l121 563q3 31 19 57q26 57 75 57q28 0 41 -16 q22 -35 7 -98l-121 -563q-3 -32 -19 -58q-25 -55 -76 -55q-27 0 -40 16q-22 39 -7 97zM354 1305h189l75 71l50 -71h188l-102 184h-219z" />
<glyph unicode="&#xf5;" horiz-adv-x="657" d="M121 279q-13 -80 2 -148q12 -61 57 -100q50 -47 144 -47q101 0 163 45q64 43 102 100.5t62 142.5l121 576q14 75 -2 143q-15 67 -57 101q-55 45 -146 45q-104 0 -161 -45q-64 -46 -102 -105.5t-62 -144.5zM315 279l121 563q3 31 19 57q26 57 75 57q28 0 41 -16 q22 -35 7 -98l-121 -563q-3 -32 -19 -58q-25 -55 -76 -55q-27 0 -40 16q-22 39 -7 97zM408 1305q3 1 9 4t9 4t9 4t9 4q46 16 78 16q44 -3 88 -20q40 -19 84 -19q18 0 43 7q44 8 74 32l33 152q-3 -1 -9.5 -4t-9.5 -4t-9 -4t-9 -4q-53 -17 -78 -17q-45 3 -86 23q-46 16 -86 16 q-25 0 -43 -6q-39 -11 -74 -33z" />
<glyph unicode="&#xf6;" horiz-adv-x="657" d="M121 279q-13 -80 2 -148q12 -61 57 -100q50 -47 144 -47q101 0 163 45q64 43 102 100.5t62 142.5l121 576q14 75 -2 143q-15 67 -57 101q-55 45 -146 45q-104 0 -161 -45q-64 -46 -102 -105.5t-62 -144.5zM315 279l121 563q3 31 19 57q26 57 75 57q28 0 41 -16 q22 -35 7 -98l-121 -563q-3 -32 -19 -58q-25 -55 -76 -55q-27 0 -40 16q-22 39 -7 97zM367 1305h190l43 200h-190zM655 1305h191l43 200h-191z" />
<glyph unicode="&#xf8;" horiz-adv-x="657" d="M106 -78h80l39 78q46 -16 99 -16q101 0 163 45q64 43 102 100.5t62 142.5l121 576q6 44 6 84q-4 34 -7 51t-14.5 45.5t-29.5 48.5l57 121h-75l-37 -80q-59 19 -105 19q-104 0 -161 -45q-64 -46 -102 -105.5t-62 -144.5l-121 -563q-8 -36 -8 -86q0 -94 51 -150zM315 197 l228 485l-86 -403q-3 -32 -19 -58q-25 -55 -76 -55q-38 0 -47 31zM350 436l86 406q3 31 19 57q26 57 75 57q22 0 32.5 -8t15.5 -26z" />
<glyph unicode="&#xf9;" horiz-adv-x="690" d="M121 203q-18 -83 6 -144q24 -75 102 -75q20 0 60 16q40 23 104 74q18 16 27 20l-19 -94h207l238 1120h-207l-188 -882q-17 -21 -25 -27q-31 -27 -53 -27q-23 0 -34.5 10t-4.5 39l188 887h-207zM428 1489l123 -184h160l-68 184h-215z" />
<glyph unicode="&#xfa;" horiz-adv-x="690" d="M121 203q-18 -83 6 -144q24 -75 102 -75q20 0 60 16q40 23 104 74q18 16 27 20l-19 -94h207l238 1120h-207l-188 -882q-17 -21 -25 -27q-31 -27 -53 -27q-23 0 -34.5 10t-4.5 39l188 887h-207zM551 1305h160l200 184h-215z" />
<glyph unicode="&#xfb;" horiz-adv-x="690" d="M121 203q-18 -83 6 -144q24 -75 102 -75q20 0 60 16q40 23 104 74q18 16 27 20l-19 -94h207l238 1120h-207l-188 -882q-17 -21 -25 -27q-31 -27 -53 -27q-23 0 -34.5 10t-4.5 39l188 887h-207zM371 1305h188l76 71l49 -71h188l-102 184h-219z" />
<glyph unicode="&#xfc;" horiz-adv-x="690" d="M121 203q-18 -83 6 -144q24 -75 102 -75q20 0 60 16q40 23 104 74q18 16 27 20l-19 -94h207l238 1120h-207l-188 -882q-17 -21 -25 -27q-31 -27 -53 -27q-23 0 -34.5 10t-4.5 39l188 887h-207zM383 1305h190l43 200h-190zM672 1305h190l43 200h-190z" />
<glyph unicode="&#xfd;" horiz-adv-x="634" d="M-51 -397q50 -4 65 -4h25q110 0 217 100q83 78 137 217l455 1204h-203l-229 -688l-17 -57h-8l8 57l66 688h-203l-55 -1153q-6 -34 -21 -61q-35 -69 -90 -103q-25 -16 -59.5 -19t-36.5 1q-10 0 -12 2zM508 1305h160l200 184h-215z" />
<glyph unicode="&#xfe;" horiz-adv-x="686" d="M0 -385h207l96 459q14 -16 43 -45q53 -45 103 -45q71 0 139 75q49 61 67 144l152 715q16 77 -6 145q-32 74 -109 74q-32 0 -59 -15q-50 -19 -123 -75l98 458h-207zM340 246l133 628q6 28 29 48t47 20q23 0 35 -19.5t6 -48.5l-133 -628q-6 -29 -26.5 -48.5t-43.5 -19.5 t-37.5 21.5t-9.5 46.5z" />
<glyph unicode="&#xff;" horiz-adv-x="634" d="M-51 -397q50 -4 65 -4h25q110 0 217 100q83 78 137 217l455 1204h-203l-229 -688l-17 -57h-8l8 57l66 688h-203l-55 -1153q-6 -34 -21 -61q-35 -69 -90 -103q-25 -16 -59.5 -19t-36.5 1q-10 0 -12 2zM354 1305h191l43 200h-191zM643 1305h191l43 200h-191z" />
<glyph unicode="&#x152;" horiz-adv-x="983" d="M133 157.5q18 -66.5 68 -108.5q55 -49 161 -49h580l47 227h-284l88 414h204l52 242h-205l84 395h284l50 227h-580q-111 0 -182 -47q-63 -42 -109 -108q-48 -67 -69 -154l-189 -887q-18 -85 0 -151.5zM354 309l189 887q6 32 18 55q29 56 78 56q41 0 51 -37t2 -60 l-190 -901q-6 -25 -21 -55q-25 -55 -78 -55q-25 0 -38 16q-26 37 -11 94z" />
<glyph unicode="&#x153;" horiz-adv-x="995" d="M121 279q-13 -80 2 -148q12 -61 57 -100q50 -47 144 -47q101 0 182 57q50 -57 158 -57q101 0 163 45q65 43 103.5 101t62.5 142l27 129h-193l-26 -122q-7 -38 -21 -58q-25 -55 -75 -55q-43 0 -54 47q-7 30 0 59l54 250h342l67 326q14 75 -2 143q-15 67 -57 101 q-55 45 -146 45q-101 0 -182 -60q-53 60 -160 60q-104 0 -161 -45q-64 -46 -102 -105.5t-62 -144.5zM315 279l121 563q3 31 19 57q26 57 75 57q28 0 41 -16q22 -35 7 -98l-121 -563q-3 -32 -19 -58q-25 -55 -76 -55q-27 0 -40 16q-22 39 -7 97zM737 684l35 164q1 2 4.5 10.5 t5.5 15.5q3 14 17 35q26 47 73 47q28 0 41 -16q21 -33 9 -98l-35 -158h-150z" />
<glyph unicode="&#x178;" horiz-adv-x="704" d="M242 0h221l135 641l410 864h-217l-213 -481l-11 -14h-4l-2 14l-8 481h-217l41 -864zM461 1638h190l41 201h-190zM750 1638h190l41 201h-190z" />
<glyph unicode="&#x2c6;" horiz-adv-x="1021" d="M537 1305h188l76 71l49 -71h188l-102 184h-219z" />
<glyph unicode="&#x2dc;" horiz-adv-x="1024" d="M590 1305q3 1 9 4t9 4t9.5 4t9.5 4q46 16 78 16q44 -3 88 -20q40 -19 84 -19q19 0 43 7q42 8 73 32l33 152q-3 -1 -9 -4t-9 -4t-9.5 -4t-9.5 -4q-53 -17 -78 -17q-45 3 -86 23q-46 16 -86 16q-25 0 -43 -6q-37 -11 -73 -33z" />
<glyph unicode="&#x2000;" horiz-adv-x="952" />
<glyph unicode="&#x2001;" horiz-adv-x="1905" />
<glyph unicode="&#x2002;" horiz-adv-x="952" />
<glyph unicode="&#x2003;" horiz-adv-x="1905" />
<glyph unicode="&#x2004;" horiz-adv-x="635" />
<glyph unicode="&#x2005;" horiz-adv-x="476" />
<glyph unicode="&#x2006;" horiz-adv-x="317" />
<glyph unicode="&#x2007;" horiz-adv-x="317" />
<glyph unicode="&#x2008;" horiz-adv-x="238" />
<glyph unicode="&#x2009;" horiz-adv-x="381" />
<glyph unicode="&#x200a;" horiz-adv-x="105" />
<glyph unicode="&#x2010;" horiz-adv-x="444" d="M170 455h297l41 194h-297z" />
<glyph unicode="&#x2011;" horiz-adv-x="444" d="M170 455h297l41 194h-297z" />
<glyph unicode="&#x2012;" horiz-adv-x="444" d="M170 455h297l41 194h-297z" />
<glyph unicode="&#x2013;" horiz-adv-x="806" d="M211 649h659l41 195h-659z" />
<glyph unicode="&#x2014;" horiz-adv-x="972" d="M211 649h825l41 195h-825z" />
<glyph unicode="&#x2018;" horiz-adv-x="309" d="M264 1012h215l47 227h-71l129 266h-103l-170 -266z" />
<glyph unicode="&#x2019;" horiz-adv-x="309" d="M260 1012h102l168 266l50 227h-215l-50 -227h72z" />
<glyph unicode="&#x201a;" horiz-adv-x="309" d="M-10 -266h100l170 266l47 227h-215l-47 -227h72z" />
<glyph unicode="&#x201c;" horiz-adv-x="624" d="M268 1012h215l47 227h-71l129 266h-103l-170 -266zM571 1012h215l48 227h-72l129 266h-103l-170 -266z" />
<glyph unicode="&#x201d;" horiz-adv-x="624" d="M268 1012h103l168 266l49 227h-215l-49 -227h71zM571 1012h103l168 266l49 227h-215l-49 -227h71z" />
<glyph unicode="&#x201e;" horiz-adv-x="624" d="M-2 -266h100l170 266l47 227h-215l-47 -227h72zM299 -266h102l170 266l47 227h-215l-47 -227h72z" />
<glyph unicode="&#x2022;" horiz-adv-x="663" d="M254 817q-21 -108 37 -178q55 -74 162 -74q49 0 102 21q96 36 160 133q23 34 36.5 75.5t8.5 97.5t-39 101q-60 72 -162 72q-108 0 -192 -72q-93 -80 -113 -176z" />
<glyph unicode="&#x2026;" horiz-adv-x="964" d="M53 0h215l47 227h-215zM375 0h215l47 227h-215zM696 0h215l47 227h-215z" />
<glyph unicode="&#x202f;" horiz-adv-x="381" />
<glyph unicode="&#x205f;" horiz-adv-x="476" />
<glyph unicode="&#x20ac;" horiz-adv-x="813" d="M168 547h106l-49 -238q-18 -96 2 -164q13 -67 62 -110q54 -51 162 -51q109 0 180 51q58 38 112 110q48 73 72 164l16 84h-206l-17 -84q-7 -29 -20 -55q-28 -55 -88 -55q-26 0 -39 16q-24 35 -15 94l50 238h233l29 137h-234l31 137h233l29 137h-233l51 238q6 21 20 55 q33 56 80 56q33 0 47 -17q27 -35 15 -94l-19 -84h207l19 84q15 97 -5 162q-13 68 -63 112q-59 52 -160 52q-103 0 -182 -52q-52 -35 -111 -112q-47 -70 -69 -162l-52 -238h-106l-29 -137h107l-31 -137h-106z" />
<glyph unicode="&#x2122;" horiz-adv-x="937" d="M352 821h113l123 580h104l23 104h-322l-22 -104h104zM614 821h103l94 449l-14 -449h51l172 449l-94 -449h104l146 684h-138l-135 -319h-6v319h-137z" />
<glyph unicode="&#xe000;" horiz-adv-x="1116" d="M0 0v1116h1116v-1116h-1116z" />
<glyph unicode="&#xfb01;" horiz-adv-x="772" d="M125 0h207l196 934h152l-197 -934h207l238 1120h-359l6 29q1 3 2.5 11t2.5 11q1 4 6 29q7 38 20 62q33 71 92 71q33 0 47 -2q20 -2 62 -10l39 184q-3 1 -11 2t-12 2q-16 0 -22 2q-37 9 -101 9q-169 0 -251 -140q-12 -19 -22.5 -41.5t-17 -40t-14 -42.5t-10.5 -37.5 t-9 -37t-7 -30.5l-7 -31h-104l-41 -186h105z" />
<glyph unicode="&#xfb02;" horiz-adv-x="772" d="M125 0h207l196 934h105l41 186h-105l6 29q1 3 2.5 11t2.5 11q1 4 6 29q7 38 20 62q33 71 92 71q34 0 66 -4l-281 -1329h207l320 1505h-164q-3 1 -11 2t-12 2q-16 0 -22 2q-37 9 -101 9q-169 0 -251 -140q-12 -19 -22.5 -41.5t-17 -40t-14 -42.5t-10.5 -37.5t-9 -37 t-7 -30.5l-7 -31h-104l-41 -186h105z" />
</font>
</defs>
</svg>
